Том і Джеррі (Сезон 1, серія 1-11) / Tom and Jerry (Season 1, Episode 1-11) (1940-1943) 720p Ukr/Eng

Нові коментарі

Нова тема   Відповісти
Автор Повідомлення
Віталій Прискурій 
Свій


З нами з: 18.06.13
Востаннє: 17.04.21
Повідомлень: 143

2014-03-03 19:35  
Том і Джеррі (Сезон 1, серія 1-11) / Tom and Jerry (Season 1, Episode 1-11) (1940-1943) 720p Ukr/Eng



Жанр: анімація, дитячий, сімейний, комедія
Країна: США

Кінокомпанія: Metro Goldwyn Mayer
Режисер: Джозеф Барбера, Уільям Ханна, Джин Дейч, Чак Джонс
Сюжет:
Сюжет більшості серій мультфільму крутиться навколо марних спроб кота Тома спіймати мишу Джеррі, і на руйнування, які з цього випливають. Оскільки в деяких серіях персонажі досить мирно уживаються між собою, залишається незрозумілим, за що Том постійно переслідує Джеррі.


Тривалість: 1 серія: 7 хв. (цілком серій: 11)
Перелік серій | Онлайн
1.Геть із дому!(1940) Переглянути
2.Нічний перекус (1941) Переглянути
3.Ніч перед Різдвом (1941) Переглянути
4.Кіт боягузик (1942) Переглянути
5.Собачі неприємності (1942) Переглянути
6.Киці (1942) Переглянути
7.Мишеня - Янкі (1943) Переглянути
8.Котячі страждання (1943) Переглянути
9.Кіт у боулінг клубі ( 1942) Переглянути
10.Пернатий друг(1942) Переглянути
11.Самотнє мишеня (1943) Переглянути


Якість:
Відео:
кодек:
розмір кадру: 988x720
бітрейт: 3 467 кб/с

Аудіо 1:
мова: українська
переклад: двоголосий закадровий
кодек: 2.0
бітрейт: 192 кб/с

Озвучення виконано: UAVoice
Озвучення: Віталій Прискурій та Людмила Швець
Монтаж та робота зі звуком: Віталій Прискурій
Обкладинки: Данило Земляний

Аудіо 2:
мова: англійська
переклад: оригінал
кодек: 1.0
бітрейт: 192 кб/с

Озвучено за підтримки онлайн кінотеатру UkrFresh.at.ua

SD HD 1080
Скріншоти







Info
General
Unique ID : 236054858235551192466055989069891803759 (0xB19683126469584D8FFBD685D93C9A6F)
Complete name : E:\[UAVoice] Tom and Jerry 720 UKR\Tom.and.Jerry.E01.1940.720p.BluRay.Ukr.Eng.UAVoice.
Format :
Format version : Version 4 / Version 2
File size : 261 MiB
Duration : 9mn 16s
Overall bit rate : 3 929 Kbps
Movie name : UAVoice
Encoded date : UTC 2014-03-03 17:51:03
Writing application : v6.7.0 ('Back to the Ground') 32bit built on Jan 8 2014 15:03:17
Writing library : libebml v1.3.0 + v1.4.1

Video
ID : 1
Format : AVC
Format/Info : Advanced Video Codec
Format profile : [email protected]
Format settings, CABAC : Yes
Format settings, ReFrames : 11 frames
Codec ID : V_MPEG4/ISO/AVC
Duration : 9mn 16s
Bit rate : 3 467 Kbps
Width : 988 pixels
Height : 720 pixels
Display aspect ratio : 1.372
Frame rate mode : Constant
Frame rate : 23.976 fps
Color space : YUV
Chroma subsampling : 4:2:0
Bit depth : 8 bits
Scan type : Progressive
Bits/(Pixel*Frame) : 0.203
Stream size : 230 MiB (88%)
Title : UAVoice.com
Writing library : core 119 r2106 07efeb4
Encoding settings : cabac=1 / ref=11 / deblock=1:-3:-3 / analyse=0x3:0x133 / me=tesa / subme=11 / psy=1 / psy_rd=1.00:0.15 / mixed_ref=1 / me_range=24 / chroma_me=1 / trellis=2 / 8x8dct=1 / cqm=0 / deadzone=21,11 / fast_pskip=0 / chroma_qp_offset=-3 / threads=12 / sliced_threads=0 / nr=0 / decimate=1 / interlaced=0 / bluray_compat=0 / constrained_intra=0 / bframes=7 / b_pyramid=2 / b_adapt=2 / b_bias=0 / direct=3 / weightb=1 / open_gop=0 / weightp=2 / keyint=250 / keyint_min=23 / scenecut=40 / intra_refresh=0 / rc_lookahead=60 / rc=crf / mbtree=0 / crf=20.0 / qcomp=0.60 / qpmin=0 / qpmax=69 / qpstep=4 / vbv_maxrate=50000 / vbv_bufsize=50000 / crf_max=0.0 / nal_hrd=none / ip_ratio=1.40 / pb_ratio=1.30 / aq=1:0.60
Language : English
Default : No
Forced : No

Audio #1
ID : 2
Format : AC-3
Format/Info : Audio Coding 3
Mode extension : CM (complete main)
Format settings, Endianness : Big
Codec ID : A_AC3
Duration : 9mn 16s
Bit rate mode : Constant
Bit rate : 192 Kbps
Channel(s) : 2 channels
Channel positions : Front: L R
Sampling rate : 48.0 KHz
Bit depth : 16 bits
Compression mode : Lossy
Stream size : 12.7 MiB (5%)
Title : UAVoice
Language : Ukrainian
Default : Yes
Forced : No

Audio #2
ID : 3
Format : AC-3
Format/Info : Audio Coding 3
Mode extension : CM (complete main)
Format settings, Endianness : Big
Codec ID : A_AC3
Duration : 9mn 16s
Bit rate mode : Constant
Bit rate : 192 Kbps
Channel(s) : 1 channel
Channel positions : Front: C
Sampling rate : 48.0 KHz
Bit depth : 16 bits
Compression mode : Lossy
Delay relative to video : 23ms
Stream size : 12.7 MiB (5%)
Language : English
Default : No
Forced : No
Джерело:
Особиста оцінка: 10 - без зайвих вагань рекомендую всім!


Авторський реліз (завантажувати можна без реєстрації)
 Трекер:    Зареєстрований   

Завантажити / скачати мультфільм українською



відео для новачків



 Зареєстрований:   2014-03-21 23:07
 Розмір:   3.53 GB 
 Оцінка мультсеріалу:   9.9/10 (Голосів: 26)
 Озвучено за підтримки онлайн кінотеатру UkrFresh.at.ua
   
bot 
робот


З нами з: 30.09.07
Востаннє: 26.05.05
Повідомлень: 27963

2014-03-04 01:08  
Тему перенесено з Анонси релізів до форуму Мультсеріали в HD


Віталій Прискурій

NeetScrool 
Відео Гуртом - фільмокрай
Відео Гуртом - фільмокрай


З нами з: 10.01.13
Востаннє: 22.04.21
Повідомлень: 3146

2014-03-04 01:22  
А що там озвучувати?)
kino. 
Модератор відео


З нами з: 27.06.10
Востаннє: 22.04.21
Повідомлень: 2924

2014-03-04 07:21  
Віталій Прискурій написано:
кодек:

вкажіть кількість каналів

Скріншоти повинні бути у форматі .png

Віталій Прискурій 
Свій


З нами з: 18.06.13
Востаннє: 17.04.21
Повідомлень: 143

2014-03-04 13:28  
kino.
Зробив.

Додано через 1 хвилину 12 секунд:

NeetScrool написано:
А що там озвучувати?)

Написи, господиню, в рідкісних випадках Тома і Джеррі.
Подивіться самі

Додано через 1 хвилину:

В деяких серіях є ще від автора

Віталій Прискурій 
Свій


З нами з: 18.06.13
Востаннє: 17.04.21
Повідомлень: 143

2014-03-09 02:19  
Оновив до 8 серії!

pentagon 
Частий відвідувач


З нами з: 08.12.09
Востаннє: 22.04.21
Повідомлень: 35

2014-03-09 11:28  
Супер. Це мав хтось зробити ще років 20 назад.
Це саме той випадок, коли "краще пізно, ніж ніколи".

Віталій Прискурій 
Свій


З нами з: 18.06.13
Востаннє: 17.04.21
Повідомлень: 143

2014-03-09 13:22  
pentagon написано:
краще пізно, ніж ніколи

Я теж так подумав, тому і взявся звучити.

Віталій Прискурій 
Свій


З нами з: 18.06.13
Востаннє: 17.04.21
Повідомлень: 143

2014-03-21 23:12  
Оновлено до 11 серії!!!

[email protected] 
Новенький


З нами з: 05.03.12
Востаннє: 04.02.21
Повідомлень: 8

2014-03-22 21:04  
один з найкращих мультсеріалів які я дивився в дитинстві...
Дякую за те що це робите.

tyma1 
VIP


З нами з: 27.11.09
Востаннє: 18.04.21
Повідомлень: 696

2014-04-01 12:03  
А будете озвучувати всі сезони цього мультсеріалу?
Віталій Прискурій 
Свій


З нами з: 18.06.13
Востаннє: 17.04.21
Повідомлень: 143

2014-04-06 14:20  
tyma1 написано:
А будете озвучувати всі сезони цього мультсеріалу?

Можливо, зараз на меті доробити 1 диск.

cornucopia 
Новенький


З нами з: 22.05.20
Востаннє: 29.03.21
Повідомлень: 7

2020-05-22 15:58  
Ваш часовий пояс: GMT + 2 Години

Нова тема   Відповісти