Ганнібал (Сезон 2; Серії 1-4) / Hannibal (Season 2; Episodes 1-4) (2014) 720p Ukr/Eng

Нові коментарі

Нова тема   Відповісти
Автор Повідомлення
Ukr Voice Team 
Відео Гуртом - озвучення
Відео Гуртом - озвучення


З нами з: 31.12.13
Востаннє: 11.08.15
Повідомлень: 60

2014-03-01 20:23  
Ганнібал (Сезон 2; Серії 1-4) / Hannibal (Season 2; Episodes 1-4) (2014) 720p Ukr/Eng

Ганнібал (Сезон 2; Серії 1-4) / Hannibal (Season 2; Episodes 1-4) (2014) 720p Ukr/Eng


Жанр: драма, кримінальний, детектив, психологічний, трилер
Країна: США



Кінокомпанія: Dino De Laurentiis Company, Living Dead Guy Productions, AXN: Original X Production
Режисер: Брайан Фуллер
Актори: Керолін Давернас, Гетін Парк, Лауренс Фішбурн / Caroline Dhavernas, Hettienne Park, Laurence Fishburne та інші
Постер українізували: Nipohamowana, Михайло Мовчко

Сюжет:
Вілл Ґрем - обдарований профайлер, який разом з ФБР розшукує серійного вбивцю. Унікальний спосіб мислення Ґрема дарує йому дивовижну здатність глибоко перейматися почуттями іншої людини, навіть психопата. Він може зрозуміти, що ними рухає. Але коли розум переслідуваного вбивці виявляється занадто складним, він звертається за допомогою до доктора Лектера, одного з провідних психіатрів у країні.


Тривалість: 1 серія: 43:00 (цілком серій: 13)

!!!УВАГА!!!
ТОРЕНТ ОНОВЛЕНО (09.04.2014)
додано 4-тю серію

5 серія:
Озвучено - 2%
Зведено - 0%
Перелік серій
1. "Kaiseki" ("Кайсекі")
2. "Sakizuki" ("Сакізукі")
3. "Hassun" ("Хассун")
4. "Takiawase" ("Такявазе")

5. "Mukozuke" ("Мукозуке")
6. "Futamono" ("Футамоно")
7. "Yakimono" ("Якімоно")
8. "Su-zakana" ("Су-закана")
9. "Shiizakana" ("Шизакана")
10. Episode #2.10
11. Episode #2.11
12. Episode #2.12
13. Episode #2.13
Якість:
Відео:
кодек:
розмір кадру: 1 280 х 720
бітрейт: 1 988 кб/с

Аудіо # 1: Серії: 1, 4
мова: українська
переклад: двоголосий закадровий | UkrVoiceTeam
кодек: 2.0
бітрейт: 192 кб/с

Аудіо # 2: Серії: 2, 3
мова: українська
переклад: багатоголосий закадровий | UkrVoiceTeam
кодек: 2.0
бітрейт: 192 кб/с

Аудіо # 3:
мова: англійська
переклад: оригінал
кодек: 2.0
бітрейт: 384 кб/с

Джерело озвучення:
Info
Unique ID : 231118992606876155066129926897707111623 (0xADDFE61B8BCA7E11958420064741D4C7)
Complete name : D:\Завантаження\Озвучене\Ганнібал 2 сезон українською в HD від UkrVoiceTeam\Hannibal S02E01 HDTV [720p] [Ukr-Eng] [Hurtom] [UkrVoiceTeam].
Format :
Format version : Version 4 / Version 2
File size : 807 MiB
Duration : 43mn 7s
Overall bit rate : 2 616 Kbps
Encoded date : UTC 2014-03-01 18:09:19
Writing application : v6.6.0 ('The Edge Of The In Between') built on Dec 1 2013 17:55:00
Writing library : libebml v1.3.0 + v1.4.1

Video
ID : 1
Format : AVC
Format/Info : Advanced Video Codec
Format profile : [email protected]
Format settings, CABAC : Yes
Format settings, ReFrames : 9 frames
Codec ID : V_MPEG4/ISO/AVC
Duration : 43mn 7s
Bit rate : 1 988 Kbps
Width : 1 280 pixels
Height : 720 pixels
Display aspect ratio : 16:9
Frame rate mode : Constant
Frame rate : 23.976 fps
Color space : YUV
Chroma subsampling : 4:2:0
Bit depth : 8 bits
Scan type : Progressive
Bits/(Pixel*Frame) : 0.090
Stream size : 613 MiB (76%)
Writing library : core 142 r2389 956c8d8
Encoding settings : cabac=1 / ref=9 / deblock=1:2:2 / analyse=0x3:0x133 / me=umh / subme=10 / psy=1 / psy_rd=1.00:0.00 / mixed_ref=1 / me_range=24 / chroma_me=1 / trellis=2 / 8x8dct=1 / cqm=0 / deadzone=21,11 / fast_pskip=0 / chroma_qp_offset=-2 / threads=20 / lookahead_threads=2 / sliced_threads=0 / nr=0 / decimate=1 / interlaced=0 / bluray_compat=0 / constrained_intra=0 / bframes=5 / b_pyramid=2 / b_adapt=2 / b_bias=0 / direct=3 / weightb=1 / open_gop=0 / weightp=2 / keyint=250 / keyint_min=23 / scenecut=40 / intra_refresh=0 / rc_lookahead=60 / rc=crf / mbtree=1 / crf=18.0 / qcomp=0.60 / qpmin=0 / qpmax=69 / qpstep=4 / ip_ratio=1.40 / aq=1:1.00
Language : English
Default : No
Forced : No
Matrix coefficients : BT.709

Audio #1
ID : 2
Format : AC-3
Format/Info : Audio Coding 3
Mode extension : CM (complete main)
Format settings, Endianness : Big
Codec ID : A_AC3
Duration : 43mn 7s
Bit rate mode : Constant
Bit rate : 192 Kbps
Channel(s) : 2 channels
Channel positions : Front: L R
Sampling rate : 48.0 KHz
Bit depth : 16 bits
Compression mode : Lossy
Stream size : 59.2 MiB (7%)
Language : Ukrainian
Default : No
Forced : No

Audio #2
ID : 3
Format : AC-3
Format/Info : Audio Coding 3
Mode extension : CM (complete main)
Format settings, Endianness : Big
Codec ID : A_AC3
Duration : 43mn 7s
Bit rate mode : Constant
Bit rate : 384 Kbps
Channel(s) : 6 channels
Channel positions : Front: L C R, Side: L R, LFE
Sampling rate : 48.0 KHz
Bit depth : 16 bits
Compression mode : Lossy
Stream size : 118 MiB (15%)
Language : English
Default : Yes
Forced : No
Скріншоти




Джерело:
Особиста оцінка: 8 - мені сподобалося


Авторський реліз (завантажувати можна без реєстрації)
 Трекер:    Зареєстрований   

Завантажити / скачати серіал українською



відео для новачків



 Зареєстрований:   2014-04-09 16:05
 Розмір:   3.27 GB 
 Оцінка серіалу:   9.9/10 (Голосів: 17)
 Ганнібал 2 сезон українською в HD від UkrVoiceTeam
   
ostipko 
Відео Гуртом - підтримка та поширення
Відео Гуртом - підтримка та поширення


З нами з: 23.02.12
Востаннє: 20.01.19
Повідомлень: 640

2014-03-10 13:51  
УВАГА!
торент оновлено (10.03.2014)
додано 2-гу серію

ostipko 
Відео Гуртом - підтримка та поширення
Відео Гуртом - підтримка та поширення


З нами з: 23.02.12
Востаннє: 20.01.19
Повідомлень: 640

2014-03-23 18:04  
!!!УВАГА!!!
ТОРЕНТ ОНОВЛЕНО (23.03.2014)
додано 3-тю серію

dexter90 
Новенький


З нами з: 05.01.12
Востаннє: 26.07.15
Повідомлень: 16

2014-04-06 19:31  
Добрий вечір! Коли можна чекати 4 і 5 серію?
ostipko 
Відео Гуртом - підтримка та поширення
Відео Гуртом - підтримка та поширення


З нами з: 23.02.12
Востаннє: 20.01.19
Повідомлень: 640

2014-04-06 23:11  
dexter90
Доброго дня!
Я постараюся в понеділок цей (тобто вже сьогодні) викласти 4 серію.

dexter90 
Новенький


З нами з: 05.01.12
Востаннє: 26.07.15
Повідомлень: 16

2014-04-07 17:44  
Буду дуже вдячний! А 5?
ostipko 
Відео Гуртом - підтримка та поширення
Відео Гуртом - підтримка та поширення


З нами з: 23.02.12
Востаннє: 20.01.19
Повідомлень: 640

2014-04-07 17:47  
dexter90
за 5 не беруся казати, адже ми ще не знаємо чи це буде двоголосий чи багатоголосий. До вечора ми вияснимо це питання.

dexter90 
Новенький


З нами з: 05.01.12
Востаннє: 26.07.15
Повідомлень: 16

2014-04-07 21:00  
Дякую!
ostipko 
Відео Гуртом - підтримка та поширення
Відео Гуртом - підтримка та поширення


З нами з: 23.02.12
Востаннє: 20.01.19
Повідомлень: 640

2014-04-09 16:06  
!!!УВАГА!!!
ТОРЕНТ ОНОВЛЕНО (09.04.2014)
додано 4-тю серію

dexter90 
Новенький


З нами з: 05.01.12
Востаннє: 26.07.15
Повідомлень: 16

2014-05-27 21:03  
Чи можна і коли чекати повний сезон в українському перекладі? Серіал цікавий, але мабуть прийдеться дивитись російською, так як перекладати я бачу його ніхто не хоче! Sad (1)((
ostipko 
Відео Гуртом - підтримка та поширення
Відео Гуртом - підтримка та поширення


З нами з: 23.02.12
Востаннє: 20.01.19
Повідомлень: 640

2014-05-28 11:47  
dexter90
На жаль, у нас зараз відпустка невеличка. На черзі зараз буде документальний фільм "Дух Часу". Тому вже після Духу Часу ми продовжимо роботу над Ганнібалом.

aaazzz 
Відео Гуртом - підтримка та поширення
Відео Гуртом - підтримка та поширення


З нами з: 23.08.09
Востаннє: 22.11.20
Повідомлень: 85

2015-06-16 14:29  
Станьте хто на роздачу.
Ваш часовий пояс: GMT + 2 Години

Нова тема   Відповісти