За гранню / Kyoukai no Kanata / Beyond the Boundary / 境界の彼方 (1-2 із 12) (2013) 720p Jap | Ukr Sub/Jap

Нові коментарі

Нова тема   Відповісти
Останній раз роздавалося NeetScrool (2017-01-09)
Автор Повідомлення
Anonymous 







2014-02-25 21:36  
За гранню / Kyoukai no Kanata / Beyond the Boundary / 境界の彼方 (1-2 із 12) (2013) 720p Jap | Ukr Sub/Jap

За гранню / Kyoukai no Kanata / Beyond the Boundary / 境界の彼方 (1-2 із 12) (2013) 720p Jap | Ukr Sub/Jap


Жанр: пригоди, містика, комедія
Країна: Японія



Кінокомпанія: Kyoto Animation
Режисер: Ішідате Тайчі
Автор оригіналу: Наґому Торіі
Сценарій: Ханада Джюккі
Дизайн персонажів: Кадовакі Міку
Композитор: Нанасе Хікару
Звукооператор: Цуруока Йоута
Оператор-постановник: Накаґамі Рюута
Актори/Персонажі

Канбара Акіхіто (сейю: Кенн)
Головний герой. Хоча ззовні він і схожий на звичайного хлопчака але насправді він наполовину «Йома» і практично безсмертний, оскільки володіє здатністю моментально заліковувати будь-які рани. Через своє незвичайне походження він не може стати повноцінним «Йома», тому іноді відчуває свою ізольованість від світу, але намагається це почуття ігнорувати. Він великий фанат окулярів (точно як яHappy ) і навіть називає себе Meganest (біс його, що це означає). Навчається у другому класі старшої школи і є членом літературного клубу.

Куріяма Мірай (сейю: Танеда Ріса)
Чистокровний демон, але через здатність маніпулювати кров’ю, яка вважається моторошною навіть серед самих демонів її уникають. Через деякі події в минулому вона недолюблює Йом, а її джерело доходу було перекрите. В результаті дівчина живе досить бідно, але знаходить час і сили на хобі: бонсай і читання блоґів нещасних людей. Навчається в першому класі старшої школи.

Насе Міцукі (сейю: Чіхара Мінорі)
Друга дочка глави відомого сімейства демонів Насе. Схильна до садизму. Приставлена до Акіхіто з метою спостереження, але при цьому щиро про нього турбується. Насправді вони дуже хороші друзі, настільки, що можуть поговорити на відверті теми. Навчається у другому класі старшої школи і є президентом літературного клубу.

Насе Хіроомі (сейю: Судзукі Тацухіса)
Старший син родини Насе та брат Міцукі. У минулому між Акіхіто та Хіроомі явно сталося щось недобре, але зараз вони цілком нормально спілкуються і навіть жартують. Страждає від комплексу сестри. Через свої демонічні сили Хіроомі дуже чутливий до холоду, тому завжди тепло одягається, нерідко надягає рукавиці а шарф практично ніколи не знімає.
Сюжет:
Другокласник старшої школи Акіхіто Камбара – наполовину людина, наполовину невразливий демон-йому. Одного разу він зустрічає на даху школи новеньку дівчину Куріяму Мірай, яка намагається покінчити життя самогубством, стрибнувши з даху школи. До цього призвело неприйняття суспільством її незвичайних здібностей…


Тривалість: 1 серія: ~23:41 (цілком серій: 12)
Якість:
Відео:
кодек:
розмір кадру: 1280 x 720
бітрейт: 3456 кб/с

Аудіо:
мова: японська
переклад: оригінал
кодек: OGG 2.0
бітрейт: 256 кб/с

Субтитри:
мова: українська
тип: програмні (м'які)
формат: *.ass
Переклад: Sensetivity
Коректор: Hentaihunter
Лірика: Русалка/Deity
Звірка з японською: Anime Guy

Субтитри:
мова: японська
тип: програмні (м'які)
формат: *.ass
Info
General
Unique ID : 197256395170685303498555770287923602832 (0x9466332747998F33AA559EDA994F2590)
Complete name : D:\Anime\Kyoukai\Kyoukai no Kanata [][720p]\[Sensetivity]_Kyoukai_no_Kanata_-_01_[]_[720p].
Format :
Format version : Version 4 / Version 2
File size : 644 MiB
Duration : 23mn 41s
Overall bit rate mode : Variable
Overall bit rate : 3 802 Kbps
Movie name : За гранню - 01 - «Кармін» | 境界の彼方 - 01 - カーマイン
Encoded date : UTC 2014-02-23 18:56:24
Writing application : mkvmerge v6.6.0 ('The Edge Of The In Between') built on Dec 1 2013 17:55:00
Writing library : libebml v1.3.0 + libmatroska v1.4.1
Attachment : Yes / Yes / Yes / Yes / Yes / Yes / Yes / Yes / Yes / Yes / Yes / Yes

Video
ID : 1
Format : AVC
Format/Info : Advanced Video Codec
Format profile : High [email protected]
Format settings, CABAC : Yes
Format settings, ReFrames : 9 frames
Codec ID : V_MPEG4/ISO/AVC
Duration : 23mn 41s
Bit rate : 3 471 Kbps
Width : 1 280 pixels
Height : 720 pixels
Display aspect ratio : 16:9
Frame rate mode : Constant
Frame rate : 23.976 fps
Color space : YUV
Chroma subsampling : 4:2:0
Bit depth : 10 bits
Scan type : Progressive
Bits/(Pixel*Frame) : 0.157
Stream size : 588 MiB (91%)
Title : by Winter
Writing library : core 132 r2309 3b1f1f7
Encoding settings : cabac=1 / ref=9 / deblock=1:-2:-2 / analyse=0x3:0x133 / me=umh / subme=9 / psy=1 / psy_rd=0.90:0.00 / mixed_ref=1 / me_range=24 / chroma_me=1 / trellis=2 / 8x8dct=1 / cqm=0 / deadzone=21,11 / fast_pskip=1 / chroma_qp_offset=-2 / threads=12 / lookahead_threads=2 / sliced_threads=0 / nr=0 / decimate=0 / interlaced=0 / bluray_compat=0 / constrained_intra=0 / bframes=8 / b_pyramid=2 / b_adapt=2 / b_bias=0 / direct=1 / weightb=1 / open_gop=0 / weightp=2 / keyint=250 / keyint_min=23 / scenecut=40 / intra_refresh=0 / rc=crf / mbtree=0 / crf=15.8 / qcomp=0.70 / qpmin=9 / qpmax=40 / qpstep=4 / ip_ratio=1.40 / pb_ratio=1.30 / aq=1:0.90 / zones=3923,5336,b=1.3/16022,16873,b=1.3/30790,31801,b=1.3/33686,33995,b=1.3
Language : Japanese
Default : No
Forced : No

Audio
ID : 2
Format : Vorbis
Format settings, Floor : 1
Codec ID : A_VORBIS
Duration : 23mn 41s
Bit rate mode : Variable
Bit rate : 256 Kbps
Channel count : 2 channels
Sampling rate : 48.0 KHz
Compression mode : Lossy
Stream size : 43.4 MiB (7%)
Title : Vorbis 2.0
Writing library : libVorbis (Schaufenugget) (20101101 (Schaufenugget))
Language : Japanese
Default : Yes
Forced : No

Text #1
ID : 3
Format : ASS
Codec ID : S_TEXT/ASS
Codec ID/Info : Advanced Sub Station Alpha
Compression mode : Lossless
Title : Sensetivity
Language : Ukrainian
Default : Yes
Forced : No

Text #2
ID : 4
Format : ASS
Codec ID : S_TEXT/ASS
Codec ID/Info : Advanced Sub Station Alpha
Compression mode : Lossless
Language : Japanese
Default : No
Forced : No
Скріншоти









Джерело: &
Особиста оцінка: 7 - моїй подрузі не сподобалося


Золотий реліз (завантажене не впливає на рейтинг)
 Трекер:    Зареєстрований   

Завантажити / скачати аніме українською



відео для новачків



 Зареєстрований:   2014-02-25 21:36
 Розмір:   1.36 GB 
 Оцінка аніме:   7.1/10 (Голосів: 7)
   
Ваш часовий пояс: GMT + 2 Години

Нова тема   Відповісти