Газонокосар / The Lawnmower Man (1992) Remux Ukr/Eng

Нові коментарі

Нова тема   Відповісти
Автор Повідомлення
urij546724 
Відео Гуртом - фільмокрай
Відео Гуртом - фільмокрай


З нами з: 16.03.10
Востаннє: 19.08.17
Повідомлень: 5219

2014-02-23 00:15  
Газонокосар / The Lawnmower Man (1992) Remux Ukr/Eng

Газонокосар / The Lawnmower Man (1992) Remux Ukr/Eng


Жанр: жахи, фантастика
Країна: Великобританія, США, Японія



Кіностудія / кінокомпанія: Allied Vision, Fuji Eight Company Ltd., Lane Pringle Productions
Режисер: Бретт Леонард (Brett Leonard)
Актори: Джефф Фейхі (Jeff Fahey), Пірс Броснан (Pierce Brosnan), Дженні Райт (Jenny Wright), Марк Брінглесон (Mark Bringleson), Джефрі Люіс (Geoffrey Lewis), Джеремі Слейт (Jeremy Slate), Дін Норріс (Dean Norris), Коллін Коффі (Colleen Coffey)...

Сюжет:
Молодий талановитий учений Трейс ставить над розумово неповноцінним газонокосарем галявин Джоубом експерименти з використанням високих комп'ютерних технологій в комбінації з наркотиками. Трейс впроваджує Джоуба у віртуальну реальність - тривимірний комп'ютерний світ. Вченому вдається розвинути розумові здібності вчорашнього недоумка до супергенія. Але в хід експерименту таємно втручаються військові, і піддослідний перетворюється на надінтеллектуального монстра - психопата в людському вигляді, у якого виникають претензії на світове панування.
Media info
General
ID : 1 (0x1)
Complete name : E:\HD1\The Lawnmower Man (1992) [ukr_2+2_eng_DTS_5.1] Remux [Hurtom] by urij546724.m2ts
Format : BDAV
Format/Info : Blu-ray Video
File size : 16.2 GiB
Duration : 1h 43mn
Overall bit rate mode : Variable
Overall bit rate : 22.3 Mbps
Maximum Overall bit rate : 35.5 Mbps

Video
ID : 4113 (0x1011)
Menu ID : 1 (0x1)
Format : AVC
Format/Info : Advanced Video Codec
Format profile : [email protected]
Format settings, CABAC : Yes
Format settings, ReFrames : 4 frames
Format settings, GOP : M=3, N=18
Codec ID : 27
Duration : 1h 43mn
Bit rate mode : Variable
Maximum bit rate : 26.0 Mbps
Width : 1 920 pixels
Height : 1 080 pixels
Display aspect ratio : 16:9
Frame rate : 25.000 fps
Standard : PAL
Color space : YUV
Chroma subsampling : 4:2:0
Bit depth : 8 bits
Scan type : MBAFF
Color primaries : BT.709
Transfer characteristics : BT.709
Matrix coefficients : BT.709

Audio #1
ID : 4352 (0x1100)
Menu ID : 1 (0x1)
Format :
Format/Info : Digital Theater Systems
Mode : 16
Format settings, Endianness : Big
Codec ID : 130
Duration : 1h 43mn
Bit rate mode : Constant
Bit rate : 1 510 Kbps
Channel count : 6 channels
Channel positions : Front: L C R, Side: L R, LFE
Sampling rate : 48.0 KHz
Bit depth : 24 bits
Compression mode : Lossy
Stream size : 1.10 GiB (7%)
Language : Ukrainian

Audio #2
ID : 4353 (0x1101)
Menu ID : 1 (0x1)
Format :
Format/Info : Digital Theater Systems
Format profile : MA / Core
Mode : 16
Format settings, Endianness : Big
Muxing mode : Stream extension
Codec ID : 134
Duration : 1h 43mn
Bit rate mode : Variable
Bit rate : Unknown / 768 Kbps
Channel count : 6 channels
Channel positions : Front: L C R, Side: L R, LFE
Sampling rate : 48.0 KHz
Bit depth : 16 bits
Compression mode : Lossless / Lossy
Language : English

Audio #3
ID : 4354 (0x1102)
Menu ID : 1 (0x1)
Format : AC-3
Format/Info : Audio Coding 3
Mode extension : CM (complete main)
Format settings, Endianness : Big
Codec ID : 129
Duration : 1h 43mn
Bit rate mode : Constant
Bit rate : 192 Kbps
Channel count : 2 channels
Channel positions : Front: L R
Sampling rate : 48.0 KHz
Bit depth : 16 bits
Compression mode : Lossy
Stream size : 143 MiB (1%)
Language : English
Тривалість: 01:43:51
Якість: Remux
Відео:
кодек:
розмір кадру: 1920x1080
бітрейт: ~ 26 мб/с
частота кадрів: 25 к/с (fps)

Аудіо #1:
мова: українська
переклад: двоголосий закадровий
кодек: 5.1
бітрейт: 1510 кб/с
запис звуку з каналу: 2+2

Аудіо #2:
мова: англійська
переклад: оригінал
кодек: 5.1
бітрейт: 1510 кб/с

Аудіо #2:
мова: англійська
переклад: коментарі
кодек: 2.0
бітрейт: 192 кб/с

Скріншоти:





Трейлер:
Семпл
Джерело 1_________Джерело 2_________Джерело 3_________Джерело 4_________Джерело 5_________Джерело 6
У випадку, якщо з усіх джерел семпл видалять, прохання повідомити мені у ПРИВАТ


Подяка:

1. Пану urij546724, Пану Technomate і Пану karvai0 за запис звуку з ТБ.


Реліз створено:



Золотий реліз (завантажене не впливає на рейтинг)
 Трекер:    Зареєстрований   

Завантажити / скачати фільм українською



відео для новачків



 Зареєстрований:   2014-02-23 00:15
 Розмір:   16.2 GB 
 Оцінка фільму:   6.8/10 (Голосів: 9)
 Прохання залишати коментарі і не тікати з роздачі.
   
Stalker-Neo 
Частий відвідувач


З нами з: 28.01.12
Востаннє: 18.08.17
Повідомлень: 49

2017-02-09 17:00  
Цитата:
пліізз, станьте хто-небудь на роздачу...

Долучаюся!
Якщо стане нагода собі завантажити - обіцяю регулярно роздавати. Праправда! Happy

Stalker-Neo 
Частий відвідувач


З нами з: 28.01.12
Востаннє: 18.08.17
Повідомлень: 49

2017-02-12 23:30  
Що ж за напасть така? І сідер буває і у мене, начебто, на завантаженні реліз, а не вантажить і все... хоч вбийся. Чи порти у когось зачинені, чи що то таке? Не буду більш чекати... дякую, але вантажити теж не буду. :(
igor911 
Відео Гуртом
Відео Гуртом


З нами з: 18.01.08
Востаннє: 22.08.17
Повідомлень: 7317

2017-02-13 00:25  
Stalker-Neo написано:
Чи порти у когось зачинені

в обох

Stalker-Neo 
Частий відвідувач


З нами з: 28.01.12
Востаннє: 18.08.17
Повідомлень: 49

2017-02-13 05:09  
Буває, але минає. Wide grin
Став на роздачу. За що пану igor911 величезна подяка. Happy

Skyrom 
Новенький


З нами з: 11.11.13
Востаннє: 21.08.17
Повідомлень: 7

2017-06-01 00:32  
Дивився фільм, ще тільки фільм був вийшов на відео касетах...
Сподобався!
І зараз із задоволенням подивлюсь. Рекомендую всім.

Ваш часовий пояс: GMT + 2 Години

Нова тема   Відповісти