Касл (Сезон 2) / Castle (Season 2) (2009-2010) 720p Ukr/Eng

Нові коментарі

Нова тема   Відповісти
Автор Повідомлення
Dark Invader 
Модератор відео


З нами з: 06.01.11
Востаннє: 24.11.20
Повідомлень: 3007

2014-02-22 13:22  
Касл (Сезон 2) / Castle (Season 2) (2009-2010) 720p Ukr/Eng

Касл (Сезон 2) / Castle (Season 2) (2009-2010) 720p Ukr/Eng


Жанр: детектив, комедія, драма
Країна: США



Кінокомпанія: ABC Studios, Beacon Pictures, Experimental Pictures, Milmar Pictures, Disney-ABC Domestic Television / ABC
Режисери: Роб Боуман, Томас Дж. Райт, Брайан Спайсер, Джон Терлески
Актори: Стана Катіч, Натан Філліон, Джон Уертас, Шеймус Девер, Моллі С. Куінн, Сьюзен Саллівен, Тамала Джонс

Сюжет:
Успішний Нью-йоркський письменник Річард Касл отримує дозвіл від мера попрацювати в детективному відділі, де він може користуватися документацією і, можливо, відшукає сюжети для своїх романів. Касл зближується з детективами і дуже скоро стає другом блискучої Кейт Бекетт, яка відрізняється здатністю думати як злочинець і неоціненна в роботі з найбільш важкими злочинами. Тим часом, найбільша небезпека ховається в розкішній квартирі Касла, під загрозою опиняється його дочка Алексіс.


Тривалість: 1 серія: ~ 43 хв. (цілком серій: 24)
Перелік серій
01. Deep in Death
02. The Double Down
03. Inventing the Girl
04. Fool Me Once...
05. When the Bough Breaks
06. Vampire Weekend
07. Famous Last Words
08. Kill the Messenger
09. Love Me Dead
10. One Man's Treasure
11. The Fifth Bullet
12. A Rose for Everafter
13. Sucker Punch
14. The Third Man
15. Suicide Squeeze
16. The Mistress Always Spanks Twice
17. Tick, Tick, Tick...
18. Boom!
19. Wrapped Up in Death
20. The Late Shaft
21. Den of Thieves
22. Food to Die For
23. Overkill
24. A Deadly Game
Якість:
Відео:
кодек:
розмір кадру: 1 280 х 720
бітрейт: ~ 4 000 кб/с

Аудіо # 1:
мова: українська
переклад: професійний дубльований
кодек: 2.0
бітрейт: 192 кб/с

Аудіо # 2:
мова: англійська
переклад: оригінал
кодек: 5.1
бітрейт: 384 кб/с

Джерело озвучення:




Info
General
Unique ID : 212502623132111529067553770727501140988 (0x9FDE843A555933FA81C380CEF28313FC)
Complete name : D:\Нова папка\Castle - Season 2 (2009-2010) 720p [Ukr, Eng]\Castle - S02E01 (2010) 720p [Ukr, Eng].
Format :
Format version : Version 2
File size : 1.37 GiB
Duration : 41mn 59s
Overall bit rate : 4 679 Kbps
Encoded date : UTC 2014-02-21 16:25:46
Writing application : v4.9.1 ('Ich will') зібрано Jul 11 2011 23:53:15
Writing library : libebml v1.2.1 + v1.1.1

Video
ID : 1
Format : AVC
Format/Info : Advanced Video Codec
Format profile : [email protected]
Format settings, CABAC : No
Format settings, ReFrames : 2 frames
Codec ID : V_MPEG4/ISO/AVC
Duration : 41mn 59s
Bit rate : 4 010 Kbps
Width : 1 280 pixels
Height : 720 pixels
Display aspect ratio : 16:9
Frame rate mode : Constant
Frame rate : 23.976 fps
Color space : YUV
Chroma subsampling : 4:2:0
Bit depth : 8 bits
Scan type : Progressive
Bits/(Pixel*Frame) : 0.181
Stream size : 1.18 GiB (86%)
Language : English
Default : Yes
Forced : No
Color primaries : BT.709
Transfer characteristics : BT.709
Matrix coefficients : BT.709

Audio #1
ID : 2
Format : AC-3
Format/Info : Audio Coding 3
Mode extension : CM (complete main)
Format settings, Endianness : Big
Codec ID : A_AC3
Duration : 41mn 59s
Bit rate mode : Constant
Bit rate : 192 Kbps
Channel(s) : 2 channels
Channel positions : Front: L R
Sampling rate : 48.0 KHz
Bit depth : 16 bits
Compression mode : Lossy
Stream size : 57.7 MiB (4%)
Title : 1+1
Language : Ukrainian
Default : Yes
Forced : No

Audio #2
ID : 3
Format : AC-3
Format/Info : Audio Coding 3
Mode extension : CM (complete main)
Format settings, Endianness : Big
Codec ID : A_AC3
Duration : 41mn 59s
Bit rate mode : Constant
Bit rate : 384 Kbps
Channel(s) : 6 channels
Channel positions : Front: L C R, Side: L R, LFE
Sampling rate : 48.0 KHz
Bit depth : 16 bits
Compression mode : Lossy
Stream size : 115 MiB (8%)
Title : Original
Language : English
Default : No
Forced : No
Торрент-файл оновлено (18.05.2014)
Додано 21 серію.
Повний сезон!


Скріншоти:


Джерело:
Особиста оцінка: Не дивився

Цитата:
Подяки:
За запис xslim, BILko, karvai0.
За синхронізацію BILko.


Бронзовий реліз (на рейтинг впливає 75% завантаженого)
 Трекер:    Зареєстрований   

Завантажити / скачати серіал українською



відео для новачків



 Зареєстрований:   2014-05-18 14:55
 Розмір:   33.63 GB 
 Оцінка серіалу:   9.6/10 (Голосів: 24)
   
Х-Хед 
VIP


З нами з: 06.05.12
Востаннє: 07.09.20
Повідомлень: 416

2014-02-22 14:19  
Ставайте на роздачу. Любимий жанр-комедійно_драматичний. Wink (2)
Dark Invader 
Модератор відео


З нами з: 06.01.11
Востаннє: 24.11.20
Повідомлень: 3007

2014-03-05 12:01  
Торрент-файл оновлено (05.03.2014)
Додано 3-4 серії

Dark Invader 
Модератор відео


З нами з: 06.01.11
Востаннє: 24.11.20
Повідомлень: 3007

2014-03-07 14:03  
Торрент-файл оновлено (07.03.2014)
Додано 5-6 серії

Dark Invader 
Модератор відео


З нами з: 06.01.11
Востаннє: 24.11.20
Повідомлень: 3007

2014-03-12 20:51  
Торрент-файл оновлено (12.03.2014)
Додано 7-9 серії

Dark Invader 
Модератор відео


З нами з: 06.01.11
Востаннє: 24.11.20
Повідомлень: 3007

2014-03-15 12:59  
Торрент-файл оновлено (15.03.2014)
Додано 10-11 серії

Dark Invader 
Модератор відео


З нами з: 06.01.11
Востаннє: 24.11.20
Повідомлень: 3007

2014-03-17 12:53  
Торрент-файл оновлено (17.03.2014)
Додано 12-13 серії

Gutik550 
VIP


З нами з: 05.01.12
Востаннє: 25.11.20
Повідомлень: 815

2014-03-17 13:49  
Dark Invader 2 Ти, щось, змінював у останніх файлах 12-13, бо не можу пройти перевірку?
11FrYkT 
Модератор відео


З нами з: 20.02.11
Востаннє: 24.11.20
Повідомлень: 7031

2014-03-17 14:44  
Gutik550 , 12 і 13 тільки що додали їх ще скачати треба. може Ви мали на увазі 11 чи менше?
Gutik550 
VIP


З нами з: 05.01.12
Востаннє: 25.11.20
Повідомлень: 815

2014-03-17 14:55  
Ні якраз про 12 і 13 бо я допомагаю з роздачею.Пробував на 2 вінчестерах не проходить перевірку і тому питав.
Dark Invader 
Модератор відео


З нами з: 06.01.11
Востаннє: 24.11.20
Повідомлень: 3007

2014-03-17 19:04  
Gutik550
Так змінював. Я їх перезібрав, бо там було використано стиснення файлів, яке заборонене правилами.

Lil`Antoni 
VIP


З нами з: 25.02.12
Востаннє: 24.11.20
Повідомлень: 854

2014-03-21 09:36  
Подивився в українській озвучі. Так сподобалося.
Що перестав дивитися сезон з російською озвучкою.
Чекаю поки перекладуть.
Надіюсь що скоро Happy

Dark Invader 
Модератор відео


З нами з: 06.01.11
Востаннє: 24.11.20
Повідомлень: 3007

2014-03-24 13:35  
Торрент-файл оновлено (24.03.2014)
Додано 14-17 серії

Dark Invader 
Модератор відео


З нами з: 06.01.11
Востаннє: 24.11.20
Повідомлень: 3007

2014-03-28 16:19  
Торрент-файл оновлено (28.03.2014)
Додано 18-20 серії

Dark Invader 
Модератор відео


З нами з: 06.01.11
Востаннє: 24.11.20
Повідомлень: 3007

2014-04-15 12:44  
Торрент-файл оновлено (15.04.2014)
Додано 22-24 серії.
21 серія буде трохи пізніше

Woland61 
VIP


З нами з: 01.05.08
Востаннє: 23.11.20
Повідомлень: 742

2014-04-21 18:05  
А наскільки пізніше?)
Dark Invader 
Модератор відео


З нами з: 06.01.11
Востаннє: 24.11.20
Повідомлень: 3007

2014-04-22 10:30  
Woland61 написано:
А наскільки пізніше?)

Поки сам не знаю, у людини яка зводить цей серіал згорів комп"ютер. Тому як тільки так зразу.

Dark Invader 
Модератор відео


З нами з: 06.01.11
Востаннє: 24.11.20
Повідомлень: 3007

2014-04-22 16:56  
Якщо в когось є запис 21-ї серії, то скиньте його мені

Dark Invader 
Модератор відео


З нами з: 06.01.11
Востаннє: 24.11.20
Повідомлень: 3007

2014-05-18 14:56  
Торрент-файл оновлено (18.05.2014)
Додано 21 серію.
Повний сезон!

Pegass 
VIP


З нами з: 17.12.09
Востаннє: 24.11.20
Повідомлень: 1120

2016-10-26 03:24  
третій та інші сезони будуть?
badwolf 
Новенький


З нами з: 30.08.15
Востаннє: 24.11.20
Повідомлень: 15

2018-05-29 23:09  
Будь ласка, хто може, запишіть усі серії з "2+2", коли там почнуть крутити, ті сезони, котрих іще немає на "Толоці".
0mage0 
VIP


З нами з: 06.10.15
Востаннє: 23.11.20
Повідомлень: 709

2018-07-25 08:12  
Гарне продовження серіалу. Хоча психопатія Касла стає все очевиднішою. Чекаємо на третій сезон на толоці!
weyoun 
Новенький


З нами з: 30.11.16
Востаннє: 25.11.20
Повідомлень: 5

2018-08-01 16:53  
Будь ласка, викладіть наступні сезони на "толоці", а то на 2+2 вже закінчується 4-й сезон, а в інтернеті ніде немає ще навіть 3-го сезону в українській озвучці.
f1lia 
Частий відвідувач


З нами з: 25.02.15
Востаннє: 24.11.20
Повідомлень: 44

2018-08-02 09:56  
а ледве ці два за тиждень скачав про 1080 чи 4к чи нові сезони навіть не питаю
Ваш часовий пояс: GMT + 2 Години

Нова тема   Відповісти