Зоряні війни: Війни клонів / Star Wars: The Clone Wars (2008) 720p Ukr/Eng | sub Eng

Нові коментарі

Нова тема   Відповісти
Автор Повідомлення
radagastr 
Відео Гуртом - фільмокрай
Відео Гуртом - фільмокрай


З нами з: 05.12.08
Востаннє: 05.08.17
Повідомлень: 1070

2014-02-16 14:51  
Зоряні війни: Війни клонів / Star Wars: The Clone Wars (2008) 720p Ukr/Eng | sub Eng

Жанр: анімація, екшн, пригодницький, фантастика
Країна: США



Кінокомпанія: Lucasfilm
Режисер: Дейв Філоні
Актори: Метт Лантер, Ешлі Екштейн, Джеймс Арнольд Тейлор, Ді Бредлі Бейкер, Том Кейн та інші...

Сюжет: Цей повнометражний анімаційний фільм став відправною для подій, які продовжують свій розвиток в однойменному мультсеріалі.
Сюжет розгортається в час між другим (Атака Клонів) та третім (Помста Ситхів) епізодами саги Зоряні Війни – в розпал Війни Клонів.
У авангарді міжгалактичної війни Добра і Зла знову наші улюблені персонажі – Енакін Скайпуокер, Обі-Ван Кенобі та Падме Амідала, а також падаван Енакіна – Асока.

«У галактиці розкол, після битви на Джеонозисі армія дроїдів графа Дуку стрімко захопила важливі магістралі гіперпростору, відрізавши Республіку від більшої частини армії клонів. У генералів джедаїв надто мала кількість клонів, щоб закріпитися на дальньому рубежі. Із кожною хвилиною все більше планет пристає на бік Сепаратистів Дуку. Джедаї ведуть війну, тому піклуватися про збереження миру нікому. Скрізь панує хаос. Злочинність зростає. Невинні стають жертвами беззаконня, що панує в галактиці. Сина короля злочинного світу Джабби викрала конкуруюча банда піратів. У відчаї Джабба звертається до всіх з проханням про допомогу. Та через обережність джедаї не поспішають з відповіддю.»


Тривалість: 1:38:34
Якість:
Відео:
кодек:
розмір кадру: 1280 х 544
бітрейт: 2 900 кб/с

Аудіо # 1:
мова: українська
переклад: двоголосий закадровий
кодек: 2.0
бітрейт: 192 кб/с

Аудіо # 2:
мова: англійська
переклад: оригінал
кодек: -HD 5.1
бітрейт: 1 510 кб/с

Джерело озвучення:


За доріжку спасибі yuraflash.

Субтитри:
мова: англійська
тип: програмні (м'які)
формат: *.srt
Скріншоти







Info
General
Unique ID : 183093967269005158480185145661178156384 (0x89BE9D8C2A53AFC6A07DCD86657A9560)
Complete name : E:\Star Wars - The Clone Wars (2008) [ukr,eng] 720p [Hurtom].
Format :
Format version : Version 2
File size : 3.16 GiB
Duration : 1h 38mn
Overall bit rate : 4 595 Kbps
Movie name : Star Wars: The Clone Wars (2008) - Blu-ray Disc Rip @ - PGor -
Encoded date : UTC 2014-02-16 10:12:13
Writing application : mkvmerge v4.8.0 ('I Got The...') зібрано May 24 2011 03:12:58
Writing library : libebml v1.2.0 + libmatroska v1.1.0
Attachment : Yes / Yes / Yes / Yes / Yes / Yes / Yes

Video
ID : 1
Format : AVC
Format/Info : Advanced Video Codec
Format profile : [email protected]
Format settings, CABAC : Yes
Format settings, ReFrames : 8 frames
Muxing mode : Header stripping
Codec ID : V_MPEG4/ISO/AVC
Duration : 1h 38mn
Bit rate : 2 900 Kbps
Width : 1 280 pixels
Height : 544 pixels
Display aspect ratio : 2.35:1
Frame rate mode : Constant
Frame rate : 23.976 fps
Color space : YUV
Chroma subsampling : 4:2:0
Bit depth : 8 bits
Scan type : Progressive
Bits/(Pixel*Frame) : 0.174
Stream size : 1.93 GiB (61%)
Title : Star Wars: The Clone Wars (2008) - Blu-ray Disc Rip @ ESiR
Writing library : core 65 r1042M 5df2a71
Encoding settings : cabac=1 / ref=8 / deblock=1:-3:-3 / analyse=0x3:0x133 / me=umh / subme=9 / psy_rd=0.8:0.0 / mixed_ref=1 / me_range=24 / chroma_me=1 / trellis=2 / 8x8dct=1 / cqm=0 / deadzone=21,11 / chroma_qp_offset=-2 / threads=6 / nr=0 / decimate=0 / mbaff=0 / bframes=3 / b_pyramid=1 / b_adapt=2 / b_bias=0 / direct=1 / wpredb=1 / keyint=250 / keyint_min=25 / scenecut=40(pre) / rc=2pass / bitrate=2900 / ratetol=1.0 / qcomp=0.60 / qpmin=8 / qpmax=51 / qpstep=4 / cplxblur=20.0 / qblur=0.5 / vbv_maxrate=50000 / vbv_bufsize=50000 / ip_ratio=1.40 / pb_ratio=1.30 / aq=1:0.70
Language : English
Default : Yes
Forced : No

Audio #1
ID : 2
Format : AC-3
Format/Info : Audio Coding 3
Mode extension : CM (complete main)
Format settings, Endianness : Big
Muxing mode : Header stripping
Codec ID : A_AC3
Duration : 1h 38mn
Bit rate mode : Constant
Bit rate : 192 Kbps
Channel count : 2 channels
Channel positions : Front: L R
Sampling rate : 48.0 KHz
Bit depth : 16 bits
Compression mode : Lossy
Stream size : 135 MiB (4%)
Title : Ukrainian - 2.0 @ 192 kbps
Language : Ukrainian
Default : Yes
Forced : No

Audio #2
ID : 3
Format :
Format/Info : Digital Theater Systems
Mode : 16
Format settings, Endianness : Big
Muxing mode : Header stripping
Codec ID : A_DTS
Duration : 1h 38mn
Bit rate mode : Constant
Bit rate : 1 510 Kbps
Channel count : 6 channels
Channel positions : Front: L C R, Side: L R, LFE
Sampling rate : 48.0 KHz
Bit depth : 24 bits
Compression mode : Lossy
Stream size : 1.04 GiB (33%)
Title : English - -HD 5.1 @ 1536 kbps
Language : English
Default : No
Forced : No

Text
ID : 4
Format : UTF-8
Codec ID : S_TEXT/UTF8
Codec ID/Info : UTF-8 Plain Text
Title : Eng Subtitles
Language : English
Default : No
Forced : No
Джерело:
Особиста оцінка: 8 - мені сподобалося


 Трекер:    Зареєстрований   

Завантажити / скачати мультфільм українською



відео для новачків



 Зареєстрований:   2014-02-16 14:51
 Розмір:   3.16 GB 
 Оцінка мультфільму:   9.9/10 (Голосів: 18)
   
Ваш часовий пояс: GMT + 2 Години

Нова тема   Відповісти