Теорія Великого Вибуху (Сезон 6) / The Big Bang Theory (Season 6) (2012-2013) 720p Ukr/Eng

Нові коментарі

Нова тема   Відповісти
Автор Повідомлення
smak2001 
VIP


З нами з: 06.09.09
Востаннє: 23.11.20
Повідомлень: 466

2014-02-11 23:06  
Теорія Великого Вибуху (Сезон 6) / The Big Bang Theory (Season 6) (2012-2013) 720p Ukr/Eng

Теорія Великого Вибуху (Сезон 6) / The Big Bang Theory (Season 6) (2012-2013) 720p Ukr/Eng


Жанр: комедія, ситком
Країна: США



Кінокомпанія: Chuck Lorre Productions, Warner Bros. Television
Режисер: Марк Седровські
Актори: Джонні Ґалескі, Джим Парсонс, Кейлі Куоко, Саймон Хельберґ, Кунал Наяр, Мелісса Роч, Маєм Біелік та інші

Сюжет:
Двоє блискучих фізиків, Леонард та Шелдон, розумники, які знаються на тому, як "працює усесвіт". Але їх геніальність ані трішечки не допомагає їм у спілкуванні з людьми, особливо жінками. Все змінюється, коли по сусідству поселяється красуня Пенні. А ще у хлопців є два дивакуватих друга: Говард, який полюбляє використовувати фрази різними мовами і Радж, який втрачає дар мови при появі жінки.


Тривалість: 1 серія: 21:00 (цілком серій: 24)
Перелік серій
1. The Date Night Variable
2 .The Decoupling Fluctuation
3. The Higgs Boson Observation
4. The Re-Entry Minimization
5. The Holographic Excitation
6. The Extract Obliteration
7. The Habitation Configuration
8. The 43 Peculiarity
9. The Parking Spot Escalation
10. The Fish Guts Displacement
11. The Santa Simulation
12.The Egg Salad Equivalency
13.The Bakersfield Expedition
14.The Cooper/Kripke Inversion
15. The Spoiler Alert Segmentation
16. The Tangible Affection Proof
17.The Monster Isolation
18.The Contractual Obligation Implementation
19.The Closet Reconfiguration
20.The Tenure Turbulence
21.The Closure Alternative
22.The Proton Resurgence
23.The Love Spell Potential
24.The Bon Voyage Reaction
Якість:
Відео:
кодек:
розмір кадру: 1280 х 720
бітрейт: ~ 3500 кб/с

Аудіо # 1:
мова: українська
переклад: багатоголосий закадровий
кодек: 5.1
бітрейт: 384 кб/с

Аудіо # 2:
мова: англійська
переклад: оригінал
кодек: 2.0 (1-4), АС3 5.1 (5-24)
бітрейт: 256 кб/с (1-4), 384 кб/с (5-7), 448 кб/с (8, 10-24), 640 кб/с (9)
Info

Format :
Format version : Version 4 / Version 2
File size : 732 MiB
Duration : 21mn 19s
Overall bit rate : 4 796 Kbps
Movie name : UkrDub.net
Encoded date : UTC 2013-11-24 16:23:07
Writing application : v6.5.0 ('Isn't she lovely') built on Oct 20 2013 12:50:05
Writing library : libebml v1.3.0 + v1.4.1
Attachment : Yes

Video
ID : 1
Format : AVC
Format/Info : Advanced Video Codec
Format profile : [email protected]
Format settings, CABAC : No
Format settings, ReFrames : 2 frames
Codec ID : V_MPEG4/ISO/AVC
Duration : 21mn 19s
Bit rate : 3 932 Kbps
Width : 1 280 pixels
Height : 720 pixels
Display aspect ratio : 16:9
Frame rate : 23.976 fps
Color space : YUV
Chroma subsampling : 4:2:0
Bit depth : 8 bits
Scan type : Progressive
Bits/(Pixel*Frame) : 0.178
Stream size : 600 MiB (82%)
Default : Yes
Forced : Yes
Color primaries : BT.709-5, BT.1361, IEC 61966-2-4, SMPTE RP177
Transfer characteristics : BT.709-5, BT.1361
Matrix coefficients : BT.709-5, BT.1361, IEC 61966-2-4 709, SMPTE RP177

Audio #1
ID : 2
Format : AC-3
Format/Info : Audio Coding 3
Mode extension : CM (complete main)
Codec ID : A_AC3
Duration : 21mn 19s
Bit rate mode : Constant
Bit rate : 384 Kbps
Channel(s) : 6 channels
Channel positions : Front: L C R, Side: L R, LFE
Sampling rate : 48.0 KHz
Bit depth : 16 bits
Compression mode : Lossy
Stream size : 58.6 MiB (8%)
Title : UkrDub.net
Language : Ukrainian
Default : Yes
Forced : Yes

Audio #2
ID : 3
Format : AC-3
Format/Info : Audio Coding 3
Mode extension : CM (complete main)
Codec ID : A_AC3
Duration : 21mn 19s
Bit rate mode : Constant
Bit rate : 384 Kbps
Channel(s) : 6 channels
Channel positions : Front: L C R, Side: L R, LFE
Sampling rate : 48.0 KHz
Bit depth : 16 bits
Compression mode : Lossy
Stream size : 58.6 MiB (8%)
Language : English
Default : No
Forced : No
Скріншоти

Переклад: Gedet
Текст читали: Mr.Bero, [email protected], Русалка
Робота зі звуком: PuMa.ua

Джерело :


Авторський реліз (завантажувати можна без реєстрації)
 Трекер:    Зареєстрований   

Завантажити / скачати серіал українською



відео для новачків



 Зареєстрований:   2014-02-11 23:06
 Розмір:   17.81 GB 
 Оцінка серіалу:   9.8/10 (Голосів: 84)
   
smak2001 
VIP


З нами з: 06.09.09
Востаннє: 23.11.20
Повідомлень: 466

2014-02-11 23:09  
Розумію, це повтор, але попередня роздача зависла.
Народ попросив, я виклав.
Адміни - вирішать, то в смітник

snovyda 
Свій


З нами з: 01.03.11
Востаннє: 18.11.20
Повідомлень: 147

2014-02-12 00:29  
А попередніх сезонів ніде нема?
smak2001 
VIP


З нами з: 06.09.09
Востаннє: 23.11.20
Повідомлень: 466

2014-02-12 01:05  
snovyda
https://toloka.to/tracker.php
введи що шукаєш, та буде тобі щастя

janek 
Свій


З нами з: 30.08.09
Востаннє: 23.11.20
Повідомлень: 63

2014-03-12 15:16  
Привіт. поставив на завантаження, показує що 2-є роздають, але торент не вантажиться - "пошук пірів". така ж сама біда з 7-м сезоном. може щось підкажете, чи станете на підмогу в роздачу?
don pedro 
Попереджень: 1
Попереджень: 1 


З нами з: 29.06.11
Востаннє: 24.11.20
Повідомлень: 18160

2014-03-12 21:59  
janek
Цей самий серіал з цим самим озвученням ви можете без проблем скачати на сайті-першоджерелі - Ukr.dub

janek 
Свій


З нами з: 30.08.09
Востаннє: 23.11.20
Повідомлень: 63

2014-03-16 09:37  
don pedro написано:
Ukr.dub

дякую. вже вантажу.

nazarbandit 
VIP


З нами з: 07.03.09
Востаннє: 23.11.20
Повідомлень: 280

2014-04-14 19:58  
я розумію дурне питання, а буде норм переклад тобто від мтв ? бо шось не можу найти ніякої інфи
ukrbass 
Новенький


З нами з: 15.10.13
Востаннє: 23.11.20
Повідомлень: 13

2015-04-03 10:25  
а розмір не 17гб буде ?
smak2001 
VIP


З нами з: 06.09.09
Востаннє: 23.11.20
Повідомлень: 466

2015-04-04 01:43  
ukrbass
не від мене.
ukrbass написано:
Рейтинг: 0.13

краще піднімати, що не зможеш качати

bhunter 
Новенький


З нами з: 12.12.09
Востаннє: 23.12.19
Повідомлень: 2

2015-05-27 12:53  
23 та 24 серії переплутані
xsero 
Частий відвідувач


З нами з: 30.11.08
Востаннє: 14.03.18
Повідомлень: 48

2015-05-27 14:44  
поганий переклад
Віталік ЗАбіяка 
Новенький


З нами з: 24.07.14
Востаннє: 21.11.20
Повідомлень: 3

2015-08-13 23:39  
xsero
повністю підтримую. От переклади попередніх сезонів мені більше подобалися.

benzobak 
Новенький


З нами з: 11.12.11
Востаннє: 22.11.20
Повідомлень: 4

2015-11-09 23:12  
На жаль, англійська мова дуже гучна, і часто неможливо розібрати, що кажуть актори... Sad (1)
dimich7771 
Частий відвідувач


З нами з: 04.01.14
Востаннє: 14.07.19
Повідомлень: 34

2016-02-04 13:50  
Переклад Відстій
Gedet 
Відео Гуртом - субтитрування
Відео Гуртом - субтитрування


З нами з: 17.11.11
Востаннє: 15.08.20
Повідомлень: 1756

2016-02-08 01:25  
Я це не перекладав, тут вже наклеп.Happy
casper101 
VIP


З нами з: 03.12.09
Востаннє: 21.11.20
Повідомлень: 451

2016-11-30 00:04  
шкода що укрдуб більше не перклав серійSad (1)((
TheDV 
Новенький


З нами з: 31.08.14
Востаннє: 22.11.20
Повідомлень: 3

2016-12-21 21:21  
шкода що переклад не професійний
Lite_an 
Частий відвідувач


З нами з: 02.01.15
Востаннє: 18.11.20
Повідомлень: 25

2017-06-27 09:24  
мабуть на цьому сезоні мій перегляд серіалу скінчиться, з таким дубляжем я його не здужаю...
Ваш часовий пояс: GMT + 2 Години

Нова тема   Відповісти