Замок-мандрівник / Hauru no Ugoku Shiro (2005) 1080p Ukr/Jap | Sub Ukr/Eng

Нові коментарі

Нова тема   Відповісти
Автор Повідомлення
romp 
Свій


З нами з: 02.06.08
Востаннє: 13.08.17
Повідомлень: 55

2014-02-08 23:33  
Замок-мандрівник / Hauru no Ugoku Shiro (2005) 1080p Ukr/Jap | Sub Ukr/Eng



Жанр: пригодницький, фентезі, анімація, романтичний
Країна: Японія

8.1 (28806 голосів)
9.9 (50 голосів)

Кіностудія / кінокомпанія: Howl's Moving Castle Production, Committee, Studio Ghibli
Режисер: Хаяо Міязакі
Сюжет:
Дія фільму відбувається у казковому світі, що нагадує Європу 19-го сторіччя, де магія йде рука в руку з технічним прогресом. Скромне життя рано осиротілої капелюшниці Софі повністю змінилося, коли в околицях її міста з'явився ходячий замок таємничого чарівника Гаула, відомого своїми „викраданнями“ дівочих сердець. Врятована цим блакитнооким красенем від докучань двох солдафонів, вона покохала його з першого погляду, проте хвилююча прогулянка з ним коштувала юній капелюшниці краси й молодості, які відняла чарами ревнива Відьма з Пустища. Не проходить і дня, як дівчина виявляється жертвою прокльону злої відьми і перетворюється на стару. Шокуюче перетворення з вісімнадцятирічної дівчини змусило Софі покинути рідний будинок і відправитися на пошуки Відьми, аби та повернула їй нормальний вигляд. Дорога веде її невідомо куди, але по дорозі їй попадається городне опудало, яке приводить її в дивну споруду, що належить недавньому знайомцеві Софі, який виявився справжнім чарівником, правда, досить боязким і непередбачуваним. Але дівчина-старенька залишилася жити з господарем і іншими мешканцями цієї гігантської споруди на курячих ніжках, знайшовши в них сім'ю, хоч і трохи різношерсну. У Замку проживають: господар Замку, Гаул; учень Гаула, Маркл і вогненний демон, Кальцифер. Софі, із зрозумілих причин, бажає зняти закляття відьми. Але з часом з'ясовується, що закляття лежить і на Гаулі, і на Кальцифері, і на Страховищі-ріпці. І ці закляття зв'язані один з одним, як шматочки мозаїки...


Тривалість: 01:59:09
Якість:
Відео:
кодек:
розмір кадру: 1920 х 1038
бітрейт: 9158 кб/с

Аудіо:
мова: українська
переклад: професійний дубльований (Студія 1+1)
кодек: АС3 2.0
бітрейт: 128 кб/с

мова: японська
переклад: оригінал
кодек: 5.1
бітрейт: 1536 кб/с

Субтитри:
мова: українська
тип: програмні (м'які)
формат: *.ass

мова: англійська
тип: програмні (м'які)
формат: *.ass
Info:
Код:
 General
    Unique ID : 221394509809637059624509461191138868553 (0xA68F0816B5D4E0A1B41EFF7B644DFD49)
    Complete name : Howls.Moving.Castle.1080p.(UA.JP.UAsub.ENsub).
    Format :
    Format version : Version 1
    File size : 9.17 GiB
    Duration : 1h 59mn
    Overall bit rate : 11.0 Mbps
    Movie name : Howl's_Moving_Castle_(2004)_[1080p,BluRay,flac,,]_-_THORA
    Encoded date : UTC 2014-02-03 22:21:43
    Writing application : mkvmerge v2.5.3 ('Boogie') built on Mar  7 2009 15:00:41
    Writing library : libebml v0.7.7 + libmatroska v0.8.1
    Attachment : Yes / Yes / Yes / Yes / Yes / Yes / Yes / Yes / Yes / Yes / Yes / Yes

Video #1
    ID : 1
    Format : AVC
    Format/Info : Advanced Video Codec
    Format profile : High [email protected]
    Format settings, CABAC : Yes
    Format settings, ReFrames : 3 frames
    Codec ID : V_MPEG4/ISO/AVC
    Duration : 1h 59mn
    Bit rate : 9 158 Kbps
    Width : 1 920 pixels
    Height : 1 038 pixels
    Display aspect ratio : 1.85:1
    Frame rate : 23.976 fps
    Color space : YUV
    Chroma subsampling : 4:2:0
    Bit depth : 10 bits
    Scan type : Progressive
    Bits/(Pixel*Frame) : 0.192
    Stream size : 7.62 GiB (83%)
    Writing library : core
    Language : Japanese
    Default : Yes
    Forced : No

Audio #2
    ID : 2
    Format : AC-3
    Format/Info : Audio Coding 3
    Mode extension : CM (complete main)
    Format settings, Endianness : Big
    Codec ID : A_AC3
    Duration : 1h 59mn
    Bit rate mode : Constant
    Bit rate : 128 Kbps
    Channel(s) : 2 channels
    Channel positions : Front: L R
    Sampling rate : 48.0 KHz
    Bit depth : 16 bits
    Compression mode : Lossy
    Stream size : 109 MiB (1%)
    Title : AC-3, 2ch, 128kbps by RomP
    Language : Ukrainian
    Default : Yes
    Forced : No

Audio #3
    ID : 3
    Format :
    Format/Info : Digital Theater Systems
    Codec ID : A_DTS
    Duration : 1h 59mn
    Bit rate mode : Constant
    Bit rate : 1 510 Kbps
    Channel(s) : 6 channels
    Channel positions : Front: L C R, Side: L R, LFE
    Sampling rate : 48.0 KHz
    Bit depth : 16 bits
    Compression mode : Lossy
    Stream size : 1.26 GiB (14%)
    Title : 5.1 - 1536kbps
    Language : Japanese
    Default : No
    Forced : No

 Text #4
    ID : 4
    Format : ASS
    Codec ID : S_TEXT/ASS
    Codec ID/Info : Advanced Sub Station Alpha
    Compression mode : Lossless
    Language : Ukrainian
    Default : Yes
    Forced : No

Text #5
    ID : 5
    Format : ASS
    Codec ID : S_TEXT/ASS
    Codec ID/Info : Advanced Sub Station Alpha
    Compression mode : Lossless
    Language : Japanese
    Default : No
    Forced : No
Джерело:

Скріншоти:


 Трекер:    Зареєстрований   

Завантажити / скачати мультфільм українською



відео для новачків



 Зареєстрований:   2014-02-08 23:33
 Розмір:   9.17 GB 
 Оцінка мультфільму:   10/10 (Голосів: 14)
   
Інші релізи
Konfucius 
Управління
Управління


З нами з: 30.09.07
Востаннє: 20.08.17
Повідомлень: 4941

2014-02-09 11:20  
Бракує Info і джерела.
kino. 
Модератор відео


З нами з: 27.06.10
Востаннє: 20.08.17
Повідомлень: 2897

2014-02-09 11:31  
romp написано:
розмір кадру: 1920 х 1038

останній скріншот 1200 х 648

Ваш часовий пояс: GMT + 2 Години

Нова тема   Відповісти