Мертвий космос: загибель / Dead Space: Downfall (2008) 720p Ukr/Eng | Sub Ukr/Eng

Нові коментарі

Нова тема   Відповісти
Автор Повідомлення
Anonymous 







2014-02-08 00:15  
Мертвий космос: загибель / Dead Space: Downfall (2008) 720p Ukr/Eng | Sub Ukr/Eng

Мертвий космос: загибель / Dead Space: Downfall (2008) 720p Ukr/Eng | Sub Ukr/Eng


Жанр: мультфільм, жахи, фантастика
Країна: США



Кінокомпанія: Electronic Arts (EA), Film Roman Productions
Режисер: Чак Паттон (Chuck Patton)
Актори: Брюс Бокслейтнер (Bruce Boxleitner), Джим Камінґс (Jim Cummings), Ґрей ДеЛісл (Grey DeLisle), Келлі Гу (Kelly Hu), Кірк Бейлі (Kirk Baily) та інші.

Сюжет:
Гірничо-дослідницький корабель «Ішимура» котрий мандрує космічними просторами наштовхується на загадкову чужорідну Мітку, яка позначає особливу зону. Команда амбітного екіпажу впевнена, що вони виявили підтвердження існування наших творців. Але ... дослідження і зсув Мітки вивільняє ЩОСЬ, те що відносяться до інопланетного виду, яке довгий час було поховано на покинутій віддаленій планеті. Група гірників і члени космічного екіпажу вимушені вступити у відчайдушну боротьбу за виживання з монстром, з яким людство досі не стикалося...


УВАГА! НЕ РЕКОМЕНДУЄТЬСЯ ОСОБАМ ДО 18 РОКІВ!


Тривалість: 01:14:24
Якість:
Відео:
кодек:
розмір кадру: 1280 х 720
бітрейт: 3 811 кб/с

Аудіо # 1:
мова: українська
переклад: багатоголосий закадровий | BaibaKo + PlayUA
кодек: 5.1
бітрейт: 640 кб/с
Інформація про озвучення:
Озвучено студією BaibaKo.TV спільно з порталом PlayUA

Озвучили: Олекса Мельник, Anna_Smile, Акмал Гурезов, Ольга Мотрич, і Вадим Пелех.
Змонтував: Тарас Гавришкевич
Обкладинка: Тарас Гавришкевич
Аудіо # 2:
мова: англійська
переклад: оригінал
кодек: 5.1
бітрейт: 640 кб/с

Субтитри:
мова: українська
тип: програмні (м'які)
формат: *.srt

Субтитри:
мова: англійська
тип: програмні (м'які)
формат: *.srt
Info
General
Unique ID : 227358161948835533228061667898916234425 (0xAB0B96D71C083EA68782E3B7B42264B9)
Complete name : E:\RIP\Dead Space - Downfall (2008) 720p [Ukr.Eng].
Format :
Format version : Version 4 / Version 2
File size : 2.65 GiB
Duration : 1h 14mn
Overall bit rate : 5 095 Kbps
Movie name : BaibaKo.tv presents - МЕРТВИЙ КОСМОС: ЗАГИБЕЛЬ
Encoded date : UTC 2014-02-07 10:08:41
Writing application : mkvmerge v6.6.0 ('The Edge Of The In Between') built on Dec 1 2013 17:55:00
Writing library : libebml v1.3.0 + libmatroska v1.4.1
Attachment : Yes

Video
ID : 1
Format : AVC
Format/Info : Advanced Video Codec
Format profile : [email protected]
Format settings, CABAC : Yes
Format settings, ReFrames : 3 frames
Format settings, GOP : N=1
Codec ID : V_MPEG4/ISO/AVC
Duration : 1h 14mn
Bit rate : 3 811 Kbps
Width : 1 280 pixels
Height : 720 pixels
Display aspect ratio : 16:9
Frame rate mode : Constant
Frame rate : 23.976 fps
Color space : YUV
Chroma subsampling : 4:2:0
Bit depth : 8 bits
Scan type : Progressive
Bits/(Pixel*Frame) : 0.172
Stream size : 1.93 GiB (73%)
Title :
Writing library : core 65 r1016M dbc5ef0
Encoding settings : cabac=1 / ref=1 / deblock=1:0:0 / analyse=0x3:0x133 / me=hex / subme=6 / psy_rd=1.0:0.0 / mixed_ref=0 / me_range=16 / chroma_me=1 / trellis=0 / 8x8dct=1 / cqm=0 / deadzone=21,11 / chroma_qp_offset=-2 / threads=3 / nr=0 / decimate=1 / mbaff=0 / bframes=5 / b_pyramid=1 / b_adapt=1 / b_bias=0 / direct=1 / wpredb=0 / keyint=250 / keyint_min=25 / scenecut=40(pre) / rc=2pass / bitrate=3811 / ratetol=1.0 / qcomp=0.60 / qpmin=10 / qpmax=51 / qpstep=4 / cplxblur=20.0 / qblur=0.5 / ip_ratio=1.40 / pb_ratio=1.30 / aq=1:1.00
Language : English
Default : Yes
Forced : No

Audio #1
ID : 2
Format : AC-3
Format/Info : Audio Coding 3
Mode extension : CM (complete main)
Format settings, Endianness : Big
Codec ID : A_AC3
Duration : 1h 14mn
Bit rate mode : Constant
Bit rate : 640 Kbps
Channel count : 6 channels
Channel positions : Front: L C R, Side: L R, LFE
Sampling rate : 48.0 KHz
Bit depth : 16 bits
Compression mode : Lossy
Stream size : 341 MiB (13%)
Title : BaibaKo.tv + PlayUA | MVO
Language : Ukrainian
Default : Yes
Forced : No

Audio #2
ID : 3
Format : AC-3
Format/Info : Audio Coding 3
Mode extension : CM (complete main)
Format settings, Endianness : Big
Codec ID : A_AC3
Duration : 1h 14mn
Bit rate mode : Constant
Bit rate : 640 Kbps
Channel count : 6 channels
Channel positions : Front: L C R, Side: L R, LFE
Sampling rate : 48.0 KHz
Bit depth : 16 bits
Compression mode : Lossy
Stream size : 341 MiB (13%)
Title : Оригінал
Language : English
Default : No
Forced : No

Text #1
ID : 4
Format : UTF-8
Codec ID : S_TEXT/UTF8
Codec ID/Info : UTF-8 Plain Text
Title : Повні
Language : Ukrainian
Default : No
Forced : No

Text #2
ID : 5
Format : UTF-8
Codec ID : S_TEXT/UTF8
Codec ID/Info : UTF-8 Plain Text
Title : Повні
Language : English
Default : No
Forced : No
Скріншоти



Джерело: &
Особиста оцінка: 5 - позіхав


Авторський реліз (завантажувати можна без реєстрації)
 Трекер:    Зареєстрований   

Завантажити / скачати мультфільм українською



відео для новачків



 Зареєстрований:   2014-02-08 00:15
 Розмір:   2.65 GB 
 Оцінка мультфільму:   7.9/10 (Голосів: 12)
   
Харків"янин 
Свій


З нами з: 11.12.13
Востаннє: 17.09.16
Повідомлень: 141

2014-10-18 18:50  
Класний мульт, враховуючи те що я пройшов усю лінію ігор Dead Space і всі можливі DLC до них. Класний і вельми інформаційний пріквел до ігор.
Anonymous 







2016-12-04 12:22  
Врятовано.
Ваш часовий пояс: GMT + 2 Години

Нова тема   Відповісти