Мами застрягли на Марсі / Mars Needs Moms (2011) 720p-mini

Нові коментарі

Нова тема   Відповісти
Автор Повідомлення
Drool 
VIP


З нами з: 17.04.10
Востаннє: 20.08.17
Повідомлень: 1373

2014-02-05 17:36  
Мами застрягли на Марсі / Mars Needs Moms (2011) 720p-mini

Жанр: фантастика, комедія, пригодницький, анімація
Країна: США



Кінокомпанія: ImageMovers, Walt Disney Productions; мейджор – Buena Vista Sony Pictures Releasing
Режисер: Саймон Веллс
Актори: Сет Ґрін, Ден Фоґлер, Джоан К’юзак, Елізабет Арнуа, Мінді Стерлінґ

Сюжет:
Їсти мерзенну брокколі, виносити сміття, рано лягати спати - кому взагалі потрібні мами, що змушують це робити? Так думав Майло, поки не виявив, що його маму викрали марсіани. Ось тут і виявилося, що йому належить відправитися на іншу планету, щоб знайти маму і повернути її додому.


Тривалість: 01:28:04
Якість: 720p-mini
Відео:
кодек:
розмір кадру: 1280x534
бітрейт: 2603 кб/с

Аудіо:
мова: українська
переклад: професійний дубльований
кодек: 5.1
бітрейт: 384 кб/с
Джерело озвучення:
Info
General
Unique ID : 122898354916103077109885081403128403567 (0x5C755CB8260D8B1F1EDAF2056979D66F)
Complete name : /mnt/disk_d/Video/Mars.Needs.Moms.2011.Ukr.Dub..720p-mini.UAGet.
Format :
Format version : Version 2
File size : 1.84 GiB
Duration : 1h 28mn
Overall bit rate : 2 992 Kbps
Writing application : HandBrake rev0
Writing library : libmkv 0.6.5
TITLE : Мами застрягли на Марсі / Mars Needs Moms (2011) 720p-mini -=UAGet=-
ARTIST : Сет Ґрін, Ден Фоґлер, Джоан К’юзак, Елізабет Арнуа, Мінді Стерлінґ
DIRECTOR : Саймон Веллс
DATE_RELEASED : 2011
GENRE : фантастика, комедія, пригодницький, анімація
SYNOPSIS : Їсти мерзенну брокколі, виносити сміття, рано лягати спати - кому взагалі потрібні мами, що змушують це робити? Так думав Майло, поки не виявив, що його маму викрали марсіани. Ось тут і виявилося, що йому належить відправитися на іншу планету, щоб знайти маму і повернути її додому.

Video
ID : 1
Format : AVC
Format/Info : Advanced Video Codec
Format profile : [email protected]
Format settings, CABAC : Yes
Format settings, ReFrames : 7 frames
Codec ID : V_MPEG4/ISO/AVC
Duration : 1h 28mn
Bit rate : 2 603 Kbps
Width : 1 280 pixels
Height : 534 pixels
Display aspect ratio : 2.40:1
Frame rate : 23.976 fps
Color space : YUV
Chroma subsampling : 4:2:0
Bit depth : 8 bits
Scan type : Progressive
Bits/(Pixel*Frame) : 0.159
Stream size : 1.57 GiB (85%)
Writing library : core 135 r2345 f0c1c53
Encoding settings : cabac=1 / ref=8 / deblock=1:-2:-1 / analyse=0x3:0x133 / me=umh / subme=9 / psy=1 / psy_rd=1,00:0,00 / mixed_ref=1 / me_range=32 / chroma_me=1 / trellis=2 / 8x8dct=1 / cqm=0 / deadzone=21,11 / fast_pskip=0 / chroma_qp_offset=-2 / threads=6 / lookahead_threads=1 / sliced_threads=0 / nr=0 / decimate=1 / interlaced=0 / bluray_compat=0 / constrained_intra=0 / bframes=8 / b_pyramid=1 / b_adapt=2 / b_bias=0 / direct=3 / weightb=1 / open_gop=0 / weightp=2 / keyint=240 / keyint_min=24 / scenecut=40 / intra_refresh=0 / rc=2pass / mbtree=0 / bitrate=2603 / ratetol=1,0 / qcomp=1,00 / qpmin=0 / qpmax=69 / qpstep=4 / cplxblur=20,0 / qblur=0,5 / ip_ratio=1,40 / pb_ratio=1,30 / aq=0
Language : English
Default : Yes
Forced : No
Color primaries : BT.709-5, BT.1361, IEC 61966-2-4, SMPTE RP177
Transfer characteristics : BT.709-5, BT.1361
Matrix coefficients : BT.709-5, BT.1361, IEC 61966-2-4 709, SMPTE RP177

Audio
ID : 2
Format : AC-3
Format/Info : Audio Coding 3
Mode extension : CM (complete main)
Codec ID : A_AC3
Duration : 1h 28mn
Bit rate mode : Constant
Bit rate : 384 Kbps
Channel(s) : 6 channels
Channel positions : Front: L C R, Side: L R, LFE
Sampling rate : 48.0 KHz
Bit depth : 16 bits
Compression mode : Lossy
Stream size : 242 MiB (13%)
Language : Ukrainian
Default : Yes
Forced : No
Скріншоти




Реліз від:
Особиста оцінка: 10 - без зайвих вагань рекомендую всім!


 Трекер:    Зареєстрований   

Завантажити / скачати мультфільм українською



відео для новачків



 Зареєстрований:   2014-02-05 17:36
 Розмір:   1.84 GB 
 Оцінка мультфільму:   9.8/10 (Голосів: 9)
   
Ваш часовий пояс: GMT + 2 Години

Нова тема   Відповісти