Касл (Сезон 1) / Castle (Season 1) (2009) 720p Ukr/Eng | Sub Eng

Нові коментарі

Нова тема   Відповісти
Автор Повідомлення
Dark Invader 
Модератор відео


З нами з: 06.01.11
Востаннє: 20.09.19
Повідомлень: 2731

2014-02-05 15:03  
Касл (Сезон 1) / Castle (Season 1) (2009) 720p Ukr/Eng | Sub Eng

Касл (Сезон 1) / Castle (Season 1) (2009) 720p Ukr/Eng | Sub Eng


Жанр: детектив, комедія, драма
Країна: США



Кінокомпанія: ABC Studios, Beacon Pictures, Experimental Pictures, Milmar Pictures, Disney-ABC Domestic Television / ABC
Режисери: Роб Боуман, Томас Дж. Райт, Брайан Спайсер, Джон Терлески
Актори: Стана Катіч, Натан Філліон, Джон Уертас, Шеймус Девер, Моллі С. Куінн, Сьюзен Саллівен, Тамала Джонс

Сюжет:
Успішний Нью-йоркський письменник Річард Касл отримує дозвіл від мера попрацювати в детективному відділі, де він може користуватися документацією і, можливо, відшукає сюжети для своїх романів. Касл зближується з детективами і дуже скоро стає другом блискучої Кейт Бекетт, яка відрізняється здатністю думати як злочинець і неоціненна в роботі з найбільш важкими злочинами. Тим часом, найбільша небезпека ховається в розкішній квартирі Касла, під загрозою опиняється його дочка Алексіс.


Тривалість: 1 серія: ~ 43 хв. (цілком серій: 10)
Перелік серій
01. Flowers for Your Grave
02. Nanny McDead
03. Hedge Fund Homeboys
04. Hell Hath No Fury
05. A Chill Goes Through Her Veins
06. Always Buy Retail
07. Home is Where the Heart Stops
08. Ghosts
09. Little Girl Lost
10. A Death in the Family
Якість:
Відео:
кодек:
розмір кадру: 1 280 х 720
бітрейт: ~ 4 000 кб/с

Аудіо # 1:
мова: українська
переклад: професійний дубльований
кодек: 2.0
бітрейт: 256 кб/с

Аудіо # 2:
мова: англійська
переклад: оригінал
кодек: 5.1
бітрейт: 384 кб/с

Джерело озвучення:


Субтитри:
мова: англійська
тип: програмні (м'які)
формат: *.srt

Info
General
Unique ID : 180779139374315204498135354740937473634 (0x8800CBB882A7370D96D551D347463E62)
Complete name : D:\Нова папка\Castle - Season 1 (2009) 720p [Ukr, Eng]\Castle - S01E01 (2009) 720p [Ukr, Eng].
Format :
Format version : Version 2
File size : 1.47 GiB
Duration : 43mn 13s
Overall bit rate : 4 868 Kbps
Encoded date : UTC 2014-02-04 15:51:02
Writing application : v4.9.1 ('Ich will') зібрано Jul 11 2011 23:53:15
Writing library : libebml v1.2.1 + v1.1.1

Video
ID : 1
Format : AVC
Format/Info : Advanced Video Codec
Format profile : [email protected]
Format settings, CABAC : No
Format settings, ReFrames : 2 frames
Codec ID : V_MPEG4/ISO/AVC
Duration : 43mn 13s
Bit rate : 4 132 Kbps
Width : 1 280 pixels
Height : 720 pixels
Display aspect ratio : 16:9
Frame rate mode : Constant
Frame rate : 23.976 fps
Color space : YUV
Chroma subsampling : 4:2:0
Bit depth : 8 bits
Scan type : Progressive
Bits/(Pixel*Frame) : 0.187
Stream size : 1.25 GiB (85%)
Language : English
Default : Yes
Forced : No
Color primaries : BT.709
Transfer characteristics : BT.709
Matrix coefficients : BT.709

Audio #1
ID : 2
Format : AC-3
Format/Info : Audio Coding 3
Mode extension : CM (complete main)
Format settings, Endianness : Big
Codec ID : A_AC3
Duration : 43mn 13s
Bit rate mode : Constant
Bit rate : 256 Kbps
Channel(s) : 2 channels
Channel positions : Front: L R
Sampling rate : 48.0 KHz
Bit depth : 16 bits
Compression mode : Lossy
Stream size : 79.1 MiB (5%)
Title : 1+1
Language : Ukrainian
Default : Yes
Forced : No

Audio #2
ID : 3
Format : AC-3
Format/Info : Audio Coding 3
Mode extension : CM (complete main)
Format settings, Endianness : Big
Codec ID : A_AC3
Duration : 43mn 13s
Bit rate mode : Constant
Bit rate : 384 Kbps
Channel(s) : 6 channels
Channel positions : Front: L C R, Side: L R, LFE
Sampling rate : 48.0 KHz
Bit depth : 16 bits
Compression mode : Lossy
Stream size : 119 MiB (8%)
Language : English
Default : No
Forced : No

Text
ID : 4
Format : UTF-8
Codec ID : S_TEXT/UTF8
Codec ID/Info : UTF-8 Plain Text
Language : English
Default : No
Forced : No
Торрент-файл оновлено (22.02.2014)
Додано 9-10 серії.
Повний сезон!


Скріншоти:


Джерело:
Особиста оцінка: Не дивився

Цитата:
Подяки:
За запис xslim, BILko.
За синхронізацію BILko.


Бронзовий реліз (на рейтинг впливає 75% завантаженого)
 Трекер:    Зареєстрований   

Завантажити / скачати серіал українською



відео для новачків



 Зареєстрований:   2014-02-22 13:12
 Розмір:   14.09 GB 
 Оцінка серіалу:   9.5/10 (Голосів: 26)
   
qwerjar 
Поважний учасник


З нами з: 10.07.10
Востаннє: 19.09.19
Повідомлень: 154

2014-02-05 16:24  
Класно! Та й ще дубляж!
dima77777 
Поважний учасник


З нами з: 29.11.12
Востаннє: 01.09.19
Повідомлень: 225

2014-02-05 19:59  
Дякую за запис, а хто пише цей серіал???
Dark Invader 
Модератор відео


З нами з: 06.01.11
Востаннє: 20.09.19
Повідомлень: 2731

2014-02-06 22:59  
Торрент-файл оновлено (06.02.2014)
Додано 2 серію.

Dark Invader 
Модератор відео


З нами з: 06.01.11
Востаннє: 20.09.19
Повідомлень: 2731

2014-02-10 14:59  
Торрент-файл оновлено (10.02.2014)
Додано 3-4 серії.

Dark Invader 
Модератор відео


З нами з: 06.01.11
Востаннє: 20.09.19
Повідомлень: 2731

2014-02-17 13:43  
Торрент-файл оновлено (17.02.2014)
Додано 5-8 серії.

Dark Invader 
Модератор відео


З нами з: 06.01.11
Востаннє: 20.09.19
Повідомлень: 2731

2014-02-22 13:12  
Торрент-файл оновлено (22.02.2014)
Додано 9-10 серії.
Повний сезон!

shaten-dri 
Новенький


З нами з: 13.03.11
Востаннє: 09.12.18
Повідомлень: 1

2015-12-01 11:51  
Станьте на роздачу, будь ласка.
0mage0 
VIP


З нами з: 06.10.15
Востаннє: 20.09.19
Повідомлень: 495

2018-07-23 07:41  
Непоганий серіал, легкий, ненапряжний та з гумором. Дивно, звісно, писати таке про серіал про вбивства, але так воно є. Щоправда, Касл таки трошки психопат, так радіє вбивствам, це нездорово, як на мене.
kapuchinka 
Новенький


З нами з: 22.07.17
Востаннє: 20.09.19
Повідомлень: 2

2018-10-10 07:53  
Станьте хтось на роздачу будь-ласка
Ваш часовий пояс: GMT + 2 Години

Нова тема   Відповісти