Шерлок (Сезон 3) / Sherlock (Season 3) (2013) 1080p Ukr/Eng | Sub Ukr/Eng

Нові коментарі

Нова тема   Відповісти
Автор Повідомлення
xfsthe 
Оцифрування книг Гуртом
Оцифрування книг Гуртом


З нами з: 13.02.11
Востаннє: 08.10.19
Повідомлень: 279

2014-02-03 22:56  
Шерлок (Сезон 3) / Sherlock (Season 3) (2013) 1080p Ukr/Eng | Sub Ukr/Eng

Шерлок (Сезон 3) / Sherlock (Season 3) (2013) 1080p Ukr/Eng | Sub Ukr/Eng


Жанр: кримінальний, драма, детектив
Країна: Великобританія



Кінокомпанія: Hartswood Films, BBC Wales, WGBH / BBC One
Режисер: Пол МакГіган, Юрос Лін
Актори: Бенедикт Камбербетч, Мартін Фріман, Саймон П. Дей, Уна Стаббс, Лу Брілі, Руперт Грейвз, Зої Телфорд

Сюжет:
В третьому сезоні на вас чекає феєричне повернення Шерлока і одруження Ватсона. Ви дізнаєтеся, як Шерлок розрахувався з генієм злочинного світу Моріарті, навіщо він інсценував власне самогубство, а ще у вас з'явиться можливість спостерігати за новими пригодами улюблених героїв!


Тривалість: 1 серія: ~01:30:00 (цілком серій: 3)
Перелік серій
01. The Empty Hearse / Порожній катафалк
02. The Sign of Three / Ознаки третього
03. His Last Vow / Його прощальна обітниця
Якість: 1080p
Відео:
кодек:
розмір кадру: 1 912 х 1072
бітрейт: 4 725 кб/с

Аудіо # 1:
мова: українська
переклад: професійний дубльований
кодек: 2.0
бітрейт: 256 кб/с

Аудіо # 2:
мова: англійська
переклад: оригінал
кодек: 5.1
бітрейт: 384 кб/с

Субтитри:
мова: українська [форсовані] by xfsthe
тип: програмні (м'які)
формат: *.srt

Субтитри:
мова: англійська
тип: програмні (м'які)
формат: *.srt
Info (до першої серії)

General
Unique ID : 90821143194948541013308515457330154315 (0x44538413BE5BC66DE1B56A1F3E158B4B)
Complete name : /media/xfsthe/media/Шерлок/Sherlock. Season 3 (2013) [ukr,eng] sub[eng] 1080p/Sherlock s03e01. The Empty Hearse (2013) [ukr,eng] sub[eng] 1080p.
Format :
Format version : Version 4 / Version 2
File size : 3.31 GiB
Duration : 1h 26mn
Overall bit rate : 5 474 Kbps
Movie name : Шерлок с03e01. Порожній катафалк / Sherlock s03e01. The Empty Hearse (2014) 1080p
Encoded date : UTC 2014-02-03 19:18:02
Writing application : v6.3.0 ('You can't stop me!') built on Jun 29 2013 11:48:33
Writing library : libebml v1.3.0 + v1.4.0

Video
ID : 1
Format : AVC
Format/Info : Advanced Video Codec
Format profile : [email protected]
Format settings, CABAC : Yes
Format settings, ReFrames : 4 frames
Codec ID : V_MPEG4/ISO/AVC
Duration : 1h 26mn
Bit rate : 4 725 Kbps
Width : 1 912 pixels
Height : 1 072 pixels
Display aspect ratio : 16:9
Frame rate mode : Constant
Frame rate : 25.000 fps
Color space : YUV
Chroma subsampling : 4:2:0
Bit depth : 8 bits
Scan type : Progressive
Bits/(Pixel*Frame) : 0.092
Stream size : 2.85 GiB (86%)
Title : 1912x1072, 4730 kbps, 25 fps
Language : English
Default : Yes
Forced : No
Color primaries : BT.709
Transfer characteristics : BT.709
Matrix coefficients : BT.709

Audio #1
ID : 2
Format : AC-3
Format/Info : Audio Coding 3
Mode extension : CM (complete main)
Format settings, Endianness : Big
Codec ID : A_AC3
Duration : 1h 26mn
Bit rate mode : Constant
Bit rate : 256 Kbps
Channel count : 2 channels
Channel positions : Front: L R
Sampling rate : 48.0 KHz
Bit depth : 16 bits
Compression mode : Lossy
Stream size : 158 MiB (5%)
Title : 2.0 @ 256 kbps | дубляж 1+1
Language : Ukrainian
Default : Yes
Forced : No

Audio #2
ID : 3
Format : AC-3
Format/Info : Audio Coding 3
Mode extension : CM (complete main)
Format settings, Endianness : Big
Codec ID : A_AC3
Duration : 1h 26mn
Bit rate mode : Constant
Bit rate : 384 Kbps
Channel count : 6 channels
Channel positions : Front: L C R, Side: L R, LFE
Sampling rate : 48.0 KHz
Bit depth : 16 bits
Compression mode : Lossy
Stream size : 238 MiB (7%)
Title : 5.1 @ 384 kbps
Language : English
Default : No
Forced : No

Text #1
ID : 4
Format : UTF-8
Codec ID : S_TEXT/UTF8
Codec ID/Info : UTF-8 Plain Text
Title : Forced, by xfsthe
Language : Ukrainian
Default : Yes
Forced : No

Text #2
ID : 5
Format : UTF-8
Codec ID : S_TEXT/UTF8
Codec ID/Info : UTF-8 Plain Text
Language : English
Default : No
Forced : No
Скріншоти






Подяки:
За запис BILko, Юра, РОМЕО, woxeloid.
За синхронізацію BILko.
За постер Gelios.


Джерело: &
Особиста оцінка: 10 - без зайвих вагань рекомендую всім!


Бронзовий реліз (на рейтинг впливає 75% завантаженого)
 Трекер:    Зареєстрований   

Завантажити / скачати серіал українською



відео для новачків



 Зареєстрований:   2014-02-03 22:56
 Розмір:   10.35 GB 
 Оцінка серіалу:   9.6/10 (Голосів: 86)
   
Nyurko 
Новенький


З нами з: 16.10.08
Востаннє: 16.10.19
Повідомлень: 6

2014-02-06 00:59  
рік 2014
qw112 
Поважний учасник


З нами з: 17.05.14
Востаннє: 12.10.19
Повідомлень: 160

2014-07-06 20:29  
Гра престолів краща за Шерлока у 12 разів
don pedro 
Попереджень: 1
Попереджень: 1 


З нами з: 29.06.11
Востаннє: 15.10.19
Повідомлень: 14597

2014-07-06 21:47  
qw112
Це очевидно. А "Пуститись берега" у 11.

_sergius 
Свій


З нами з: 26.03.11
Востаннє: 30.09.19
Повідомлень: 99

2014-09-29 21:36  
qw112 написано:
Гра престолів краща за Шерлока у 12 разів

Гра престолів, як для мене і не тільки, - повне лайно. Але як кажуть, на колір і смак...
Шерлок типовий представник британських серіалів, короткі і насичені сезони.
Ну а Breaking Bad - це взагалі поза конкуренцією.

Михайло З 
VIP


З нами з: 10.04.09
Востаннє: 17.04.18
Повідомлень: 389

2014-11-02 20:36  
Дуже "відстійний" сезон. Ні нормального сюжету, ні гри акторів. Видно, на перших двох сезонах режисери і актори повністю "видохлися". Третій могли не робити. Зекономили б час і нерви глядачам.
mzl 
Свій


З нами з: 19.12.15
Востаннє: 16.10.19
Повідомлень: 75

2016-12-03 03:53  
я поки в процесі перегляду...для мене найкращі 1-ша серія і серія весілля Ватсона
IRONHIDE 
Поважний учасник


З нами з: 06.08.10
Востаннє: 16.10.19
Повідомлень: 183

2017-01-07 10:19  
Чудовий серіал!
Ваш часовий пояс: GMT + 2 Години

Нова тема   Відповісти