Ернест і Селестина / Ernest et Célestine (2012) 720p Frn | sub Ukr

Нові коментарі

Нова тема   Відповісти
Автор Повідомлення
Gedet 
Відео Гуртом - субтитрування
Відео Гуртом - субтитрування


З нами з: 17.11.11
Востаннє: 17.05.17
Повідомлень: 1798

2014-02-02 17:23  
Ернест і Селестина / Ernest et Célestine (2012) 720p Frn | sub Ukr

Ернест і Селестина / Ernest et Célestine (2012) 720p Frn | sub Ukr


Жанр: анімація, драма, комедія, сімейний
Країна: Франція, Бельгія



Кінокомпанія: La Parti Productions
Режисер: Стефан Об'є, Вінсент Патар
Актори: Вілсон Ламберт, Полін Брунер, Ен-Марі Луп, Ліонар Льуф

Сюжет:
Світ цієї казки поділений на два суспільства. Вверху живуть ведмеді, унизу - миші. І кожен з них лякає своїх дітей один одним. Але правда у тому, що вони не здатні жити окремо, адже залежать один від одного... Селестина - маленька мишка. Ернест - ведмідь. Їм судилось зустрітись, аби знайти власне місце у житті.


Тривалість: 01:20:00
Якість:
Відео:
кодек:
розмір кадру: 1280х720
бітрейт: 2909 кб/с

Аудіо:
мова: французька
переклад: оригінал
кодек: 5.1
бітрейт: 1509 кб/с

Субтитри:
мова: українська
тип: програмні (м'які)
формат: *.ass
Переклад:Емілі
Контроль якості:Ґедет
Скріншоти







МедіаІнфо
General
Unique ID : 190892403915376277805049599242797768394 (0x8F9C8A28D708ED8FA36AE37750AADECA)
Complete name : D:\Ернест і СелестинаБДріп720р\Ernest.et.Celestine.2012.720р.BluRay.
Format :
Format version : Version 4 / Version 2
File size : 2.50 GiB
Duration : 1h 19mn
Overall bit rate : 4 507 Kbps
Movie name : Ernest et Célestine (2012) - Release for HDCLUB
Encoded date : UTC 2014-02-02 14:31:16
Writing application : mkvmerge v6.6.0 ('The Edge Of The In Between') built on Dec 1 2013 17:55:00
Writing library : libebml v1.3.0 + libmatroska v1.4.1

Video
ID : 1
Format : AVC
Format/Info : Advanced Video Codec
Format profile : [email protected]
Format settings, CABAC : Yes
Format settings, ReFrames : 8 frames
Codec ID : V_MPEG4/ISO/AVC
Duration : 1h 19mn
Bit rate : 2 909 Kbps
Width : 1 280 pixels
Height : 720 pixels
Display aspect ratio : 16:9
Frame rate mode : Constant
Frame rate : 24.000 fps
Color space : YUV
Chroma subsampling : 4:2:0
Bit depth : 8 bits
Scan type : Progressive
Bits/(Pixel*Frame) : 0.131
Stream size : 1.61 GiB (65%)
Title : Release for HDCLUB
Writing library : core 133 r2334 a3ac64b
Encoding settings : cabac=1 / ref=8 / deblock=1:-1:-1 / analyse=0x3:0x133 / me=tesa / subme=11 / psy=1 / psy_rd=0.60:0.00 / mixed_ref=1 / me_range=48 / chroma_me=1 / trellis=2 / 8x8dct=1 / cqm=0 / deadzone=21,11 / fast_pskip=0 / chroma_qp_offset=-2 / threads=12 / lookahead_threads=3 / sliced_threads=0 / nr=0 / decimate=1 / interlaced=0 / bluray_compat=0 / constrained_intra=0 / bframes=11 / b_pyramid=2 / b_adapt=2 / b_bias=0 / direct=3 / weightb=1 / open_gop=0 / weightp=2 / keyint=240 / keyint_min=24 / scenecut=40 / intra_refresh=0 / rc_lookahead=60 / rc=crf / mbtree=0 / crf=14.0 / qcomp=0.60 / qpmin=0 / qpmax=69 / qpstep=4 / vbv_maxrate=62500 / vbv_bufsize=78125 / crf_max=0.0 / nal_hrd=none / ip_ratio=1.40 / pb_ratio=1.30 / aq=1:0.80
Language : French
Default : Yes
Forced : No
Color primaries : BT.709
Transfer characteristics : BT.709
Matrix coefficients : BT.709

Audio
ID : 2
Format :
Format/Info : Digital Theater Systems
Mode : 16
Format settings, Endianness : Big
Codec ID : A_DTS
Duration : 1h 19mn
Bit rate mode : Constant
Bit rate : 1 509 Kbps
Channel(s) : 6 channels
Channel positions : Front: L C R, Side: L R, LFE
Sampling rate : 48.0 KHz
Bit depth : 16 bits
Compression mode : Lossy
Stream size : 856 MiB (33%)
Title : ( 5.1 @ 1510 kbps - Original)
Language : French
Default : No
Forced : No
Особиста оцінка: 10 - без зайвих вагань рекомендую всім!


Золотий реліз (завантажене не впливає на рейтинг)
 Трекер:    Зареєстрований   

Завантажити / скачати мультфільм українською



відео для новачків



 Зареєстрований:   2014-02-02 17:23
 Розмір:   2.5 GB 
 Оцінка мультфільму:   10/10 (Голосів: 7)
   
Tarasyk 
Відео Гуртом - фільмокрай
Відео Гуртом - фільмокрай


З нами з: 26.08.09
Востаннє: 22.11.17
Повідомлень: 6367

2014-02-02 17:32  
Цей мульт буде озвучено українською. Усі охочі можуть допомогти зібрати необхідну суму грошей: http://www.hurtom.com/portal/donate
Gedet 
Відео Гуртом - субтитрування
Відео Гуртом - субтитрування


З нами з: 17.11.11
Востаннє: 17.05.17
Повідомлень: 1798

2014-02-02 17:55  
А можна без реклами?
Tarasyk 
Відео Гуртом - фільмокрай
Відео Гуртом - фільмокрай


З нами з: 26.08.09
Востаннє: 22.11.17
Повідомлень: 6367

2014-02-02 18:32  
А в чому проблема?
Gedet 
Відео Гуртом - субтитрування
Відео Гуртом - субтитрування


З нами з: 17.11.11
Востаннє: 17.05.17
Повідомлень: 1798

2014-02-02 18:36  
Ніякої проблеми, про що ви?
Tarasyk 
Відео Гуртом - фільмокрай
Відео Гуртом - фільмокрай


З нами з: 26.08.09
Востаннє: 22.11.17
Повідомлень: 6367

2014-02-02 18:51  
Та от і я проблем жодних не бачу Happy
Gedet 
Відео Гуртом - субтитрування
Відео Гуртом - субтитрування


З нами з: 17.11.11
Востаннє: 17.05.17
Повідомлень: 1798

2014-02-02 19:08  
А я бачу. Вона приблизно звучить так: "Не витрачайте час на ці саби, буде озвучення."

Додано через 9 хвилин 1 секунду:

Неґречно таке писати, принаймні я так гадаю.

NeetScrool 
Відео Гуртом - фільмокрай
Відео Гуртом - фільмокрай


З нами з: 10.01.13
Востаннє: 22.11.17
Повідомлень: 2702

2014-02-02 19:18  
Gedet
Тут же питання смаку. А не час чи не час. Хто хотів, той уже давно подивився російською.

Gedet 
Відео Гуртом - субтитрування
Відео Гуртом - субтитрування


З нами з: 17.11.11
Востаннє: 17.05.17
Повідомлень: 1798

2014-02-02 19:20  
Ну, Сенсе, таки згоден. Але все одно.
Ваш часовий пояс: GMT + 2 Години

Нова тема   Відповісти