І мертві підуть. Клятва. Вебепізоди / The.Walking.Dead.The.Oath.Webepisodes (2013) 1080p Eng | Sub Ukr

Нові коментарі

Нова тема   Відповісти
Автор Повідомлення
Anonymous 







2014-01-30 17:54  
І мертві підуть. Клятва. Вебепізоди / The.Walking.Dead.The.Oath.Webepisodes (2013) 1080p Eng | Sub Ukr

І мертві підуть. Клятва. Вебепізоди / The.Walking.Dead.The.Oath.Webepisodes (2013) 1080p Eng | Sub Ukr


Жанр: Жахи
Країна: США


Кінокомпанія / телеканал: AMC
Режисер: Грег Нікотеро
Актори/ролі озвучують: Ешлі Белл, Рут Вілоут, Ваят Рассел

Сюжет:
Це історія двох вцілілих: Пола і Каріни. Вони намагаються знайти допомогу тому, що Пол стікає кров'ю. Нарешті знайшовши лікарню, що не заповнена мертвяками, вони зустрічають начебто доброго лікаря, в якого є свої плани з приводу них...


Тривалість: 1 серія: 10хв (цілком серій: 3)
Перелік серій
Частина 1: Самотні
Частина 2: Вибір
Частина 3: Зв'язок
Якість:
Відео:
кодек:
розмір кадру: 1920x1080
бітрейт: 3231 кб/с

Аудіо:
мова: англійська
кодек: 2.0
бітрейт: 192 кб/с

Субтитри:
мова: українська
тип: програмні (м'які)
формат: *.srt
Переклад - Lepich
Info
General
Complete name : D:\Movie\The.Walking.Dead.Webisodes.The.Oath.2013.1080p..Shadoe\The.Walking.Dead.Webisodes.The.Oath.Part.1.2013.1080p..Shadoe.mp4
Format : MPEG-4
Format profile : Base Media
Codec ID : isom
File size : 290 MiB
Duration : 8mn 15s
Overall bit rate mode : Variable
Overall bit rate : 4 901 Kbps
Encoded date : UTC 2013-10-04 05:00:43
Tagged date : UTC 2013-10-04 05:00:43
Writing application : My MP4Box GUI 0.6.0.6 <http://my-mp4box-gui.zymichost.com>

Video
ID : 1
Format : AVC
Format/Info : Advanced Video Codec
Format profile : [email protected]
Format settings, CABAC : Yes
Format settings, ReFrames : 1 frame
Codec ID : avc1
Codec ID/Info : Advanced Video Coding
Duration : 8mn 15s
Bit rate : 4 706 Kbps
Maximum bit rate : 22.4 Mbps
Width : 1 920 pixels
Height : 1 080 pixels
Display aspect ratio : 16:9
Frame rate mode : Constant
Frame rate : 29.970 fps
Color space : YUV
Chroma subsampling : 4:2:0
Bit depth : 8 bits
Scan type : Progressive
Bits/(Pixel*Frame) : 0.076
Stream size : 278 MiB (96%)
Title : The.Walking.Dead.Webisodes.The.Oath.Part.1.2013.1080p...Shadoe.h264
Encoded date : UTC 2013-10-04 05:00:43
Tagged date : UTC 2013-10-04 05:01:14

Audio
ID : 2
Format :
Format/Info : Advanced Audio Codec
Format profile : LC
Codec ID : 40
Duration : 8mn 15s
Bit rate mode : Variable
Bit rate : 192 Kbps
Maximum bit rate : 201 Kbps
Channel(s) : 2 channels
Channel positions : Front: L R
Sampling rate : 44.1 KHz
Compression mode : Lossy
Stream size : 11.4 MiB (4%)
Title : The.Walking.Dead.Webisodes.The.Oath.Part.1.2013.1080p...Shadoe.
Encoded date : UTC 2013-10-04 05:01:12
Tagged date : UTC 2013-10-04 05:01:14[/center]
Скріншоти





Джерело:
Особиста оцінка: 10 - без зайвих вагань рекомендую всім!


Золотий реліз (завантажене не впливає на рейтинг)
 Трекер:    Зареєстрований   

Завантажити / скачати серіал українською



відео для новачків



 Зареєстрований:   2014-01-30 17:58
 Розмір:   706 MB 
 Оцінка серіалу:   9.8/10 (Голосів: 17)
   
Macros 
Новенький


З нами з: 10.08.12
Востаннє: 04.12.20
Повідомлень: 16

2014-01-30 18:11  
Що це таке?????????
don pedro 
Попереджень: 1
Попереджень: 1 


З нами з: 29.06.11
Востаннє: 05.12.20
Повідомлень: 18262

2014-01-30 18:47  
Macros
Вебепізоди. Міні відгалуження від "Мерців". Таке є до кожного сезону. Дуже цікаво.

Додано через 27 хвилин 27 секунд:

lepich
Цей реліз слід перенести у розділ HD.

micksic1 
Свій


З нами з: 18.10.09
Востаннє: 01.12.20
Повідомлень: 73

2014-01-30 21:51  
Цитата:
don pedro, Цей реліз слід перенести у розділ HD.

+1

bot 
робот


З нами з: 30.09.07
Востаннє: 26.05.05
Повідомлень: 26469

2014-01-30 22:21  
Тему перенесено з Телесеріали до форуму Серіали в HD


lepich

Nikson 
VIP


З нами з: 12.01.10
Востаннє: 04.12.20
Повідомлень: 703

2014-01-30 22:39  
Konfucius 
Управління
Управління


З нами з: 30.09.07
Востаннє: 30.11.20
Повідомлень: 5214

2014-01-31 09:03  
Відредагував реліз. Виправив явні помилки. Наступного разу попрошу бути уважнішим.

Додано через 54 секунди:

Бракує Info.

don pedro 
Попереджень: 1
Попереджень: 1 


З нами з: 29.06.11
Востаннє: 05.12.20
Повідомлень: 18262

2014-02-02 23:59  
Я при перегляді всіх сезонів і вебепізодів "Мерців..." помітив одну цікаву річ: є різні назви для зомбі.
[Captain] 
Попереджень: 1
Попереджень: 1 


З нами з: 18.02.12
Востаннє: 29.11.20
Повідомлень: 2338

2015-07-24 17:22  
Переклад з рускава. От блін. Чому не вказали.
webamator 
Новенький


З нами з: 15.08.12
Востаннє: 01.05.20
Повідомлень: 2

2016-10-16 11:20  
будь-ласка, станьте на роздачу...
don pedro 
Попереджень: 1
Попереджень: 1 


З нами з: 29.06.11
Востаннє: 05.12.20
Повідомлень: 18262

2016-10-16 15:57  
webamator
Став.

Ваш часовий пояс: GMT + 2 Години

Нова тема   Відповісти