Його дівчина П'ятниця / His Girl Friday (1940) 1080p Ukr/Eng | Sub Eng

Нові коментарі

Нова тема   Відповісти
Автор Повідомлення
taraskill1 
Модератор відео


З нами з: 21.01.12
Востаннє: 21.09.17
Повідомлень: 1052

2014-01-29 20:25  
Його дівчина П'ятниця / His Girl Friday (1940) 1080p Ukr/Eng | Sub Eng

Його дівчина П'ятниця / His Girl Friday (1940) 1080p Ukr/Eng | Sub Eng


Жанр: комедія, драма, романтика
Країна: США



Кінокомпанія: Columbia Pictures Corporation
Режисер: Говард Говкс / Howard Hawks
Актори: Кері Ґрант / Cary Grant, Розалінд Рассел / Rosalind Russell, Ральф Белламі / Ralph Bellamy, Джин Локгарт / Gene Lockhart, Портер Гол / Porter Hall, Ернест Трукс / Ernest Truex, Кліфф Едвардс / Cliff Edwards та інші

Сюжет:
Колишня дружина Волтера Бернза, газетного редактора, повідомляє, що виходить заміж. Оскільки вона - ще й найкращий репортер його видання, то й з роботи вона теж звільняється.
Вигадливий і все ще закоханий у неї Бернз дає Гільді нібито останнє велике завдання - вона має узяти інтерв'ю у засудженого до смертної кари вбивці Ерні Вільямса. А тим часом Бернз підлаштовує усе так, щоби змусити екс-дружину залишитись.


Тривалість: 01:32:08
Якість: 1080p
Відео:
кодек:
розмір кадру: 1440x1080
бітрейт: 12900 кб/с

Аудіо # 1:
мова: українська
переклад: двоголосий закадровий
кодек: 2.0
бітрейт: 192 кб/с
Інформація про озвучення
Студія «Контакт» на замовлення телеканалу "1+1"

Ролі озвучили: Олександр Завальський і Тетяна Антонова
Аудіо # 2:
мова: англійська
переклад: оригінал
кодек: 1.0
бітрейт: 640 кб/с

Субтитри:
мова: англійська
тип: програмні (м'які)
формат: *.srt
Info
Код:
General
Unique ID                   : 234083219280654439109885902293843376143 (0xB01AC9C423FC6FEB98055E322230F80F)
Complete name               : D:\His Girl Friday (1940) [Ukr,Eng] 1080p [Hurtom].
Format                      :
Format version              : Version 4 / Version 2
File size                   : 8.87 GiB
Duration                    : 1 h 32 min
Overall bit rate            : 13.8 Mb/s
Movie name                  : His.Girl.Friday.1940.1080p.BluRay.-JFrog
Encoded date                : UTC 2017-08-17 14:14:26
Writing application         : mkvmerge v14.0.0 ('Flow') 64bit
Writing library             : libebml v1.3.4 + libmatroska v1.4.5

Video
ID                          : 1
Format                      : AVC
Format/Info                 : Advanced Video Codec
Format profile              : [email protected]
Format settings, CABAC      : Yes
Format settings, ReFrames   : 5 frames
Codec ID                    : V_MPEG4/ISO/AVC
Duration                    : 1 h 32 min
Bit rate                    : 12.9 Mb/s
Width                       : 1 440 pixels
Height                      : 1 080 pixels
Display aspect ratio        : 4:3
Frame rate mode             : Constant
Frame rate                  : 23.976 (24000/1001) FPS
Color space                 : YUV
Chroma subsampling          : 4:2:0
Bit depth                   : 8 bits
Scan type                   : Progressive
Bits/(Pixel*Frame)          : 0.347
Stream size                 : 8.33 GiB (94%)
Title                       : His.Girl.Friday.1940.1080p.BluRay.
Writing library             : core 148 r2744 b97ae06
Encoding settings           : cabac=1 / ref=5 / deblock=1:-3:-3 / analyse=0x3:0x113 / me=umh / subme=8 / psy=1 / psy_rd=1.00:0.00 / mixed_ref=1 / me_range=16 / chroma_me=1 / trellis=1 / 8x8dct=1 / cqm=0 / deadzone=21,11 / fast_pskip=0 / chroma_qp_offset=-2 / threads=18 / lookahead_threads=3 / sliced_threads=0 / nr=0 / decimate=1 / interlaced=0 / bluray_compat=0 / constrained_intra=0 / bframes=3 / b_pyramid=2 / b_adapt=1 / b_bias=0 / direct=1 / weightb=1 / open_gop=0 / weightp=2 / keyint=250 / keyint_min=23 / scenecut=40 / intra_refresh=0 / rc_lookahead=40 / rc=2pass / mbtree=1 / bitrate=12945 / ratetol=1.0 / qcomp=0.60 / qpmin=0 / qpmax=69 / qpstep=4 / cplxblur=20.0 / qblur=0.5 / ip_ratio=1.40 / aq=1:1.00
Default                     : Yes
Forced                      : No

Audio #1
ID                          : 2
Format                      : AC-3
Format/Info                 : Audio Coding 3
Format settings, Endianness : Big
Codec ID                    : A_AC3
Duration                    : 1 h 32 min
Bit rate mode               : Constant
Bit rate                    : 192 kb/s
Channel(s)                  : 2 channels
Channel positions           : Front: L R
Sampling rate               : 48.0 kHz
Frame rate                  : 31.250 FPS (1536 spf)
Bit depth                   : 16 bits
Compression mode            : Lossy
Stream size                 : 127 MiB (1%)
Title                       : 1+1
Language                    : Ukrainian
Service kind                : Complete Main
Default                     : Yes
Forced                      : No

Audio #2
ID                          : 3
Format                      : AC-3
Format/Info                 : Audio Coding 3
Format settings, Endianness : Big
Codec ID                    : A_AC3
Duration                    : 1 h 32 min
Bit rate mode               : Constant
Bit rate                    : 640 kb/s
Channel(s)                  : 1 channel
Channel positions           : Front: C
Sampling rate               : 48.0 kHz
Frame rate                  : 31.250 FPS (1536 spf)
Bit depth                   : 16 bits
Compression mode            : Lossy
Stream size                 : 422 MiB (5%)
Title                       : English
Language                    : English
Service kind                : Complete Main
Default                     : No
Forced                      : No

Text
ID                          : 4
Format                      : UTF-8
Codec ID                    : S_TEXT/UTF8
Codec ID/Info               : UTF-8 Plain Text
Duration                    : 1 h 30 min
Bit rate                    : 139 b/s
Count of elements           : 1852
Stream size                 : 92.1 KiB (0%)
Title                       : English
Language                    : English
Default                     : No
Forced                      : No

Menu
00:00:00.000                : en:00:00:00.000
00:14:58.731                : en:00:14:58.731
00:24:22.461                : en:00:24:22.461
00:27:53.171                : en:00:27:53.171
00:32:39.374                : en:00:32:39.374
00:35:21.369                : en:00:35:21.369
00:41:09.884                : en:00:41:09.884
00:47:36.687                : en:00:47:36.687
00:55:07.930                : en:00:55:07.930
00:58:16.702                : en:00:58:16.702
01:06:19.517                : en:01:06:19.517
01:13:00.668                : en:01:13:00.668
01:19:41.610                : en:01:19:41.610
01:27:23.947                : en:01:27:23.947


Джерело:
Зведення звуку: taraskill1, robotron005
Особиста оцінка: 9 - давно не бачив настільки якісне кіно


Срібний реліз (на рейтинг впливає 50% завантаженого)
 Трекер:    Зареєстрований   

Завантажити / скачати фільм українською



відео для новачків



 Зареєстрований:   2017-08-18 12:30
 Розмір:   8.87 GB 
 Оцінка фільму:   3.6/10 (Голосів: 14)
   
Інші релізи
taraskill1 
Модератор відео


З нами з: 21.01.12
Востаннє: 21.09.17
Повідомлень: 1052

2017-08-18 16:07  
Реліз оновлено!

Прохання перезавантажити.

0mage0 
Свій


З нами з: 06.10.15
Востаннє: 21.09.17
Повідомлень: 81

2017-08-30 11:17  
Смішний фільм.
Тільки дівка спочатку наче дуже розумна, а в кінці залишається з безчесним покидьком :/ І щось не зрозуміло, цей чувак же вбивця, як це його помилували?

Ваш часовий пояс: GMT + 2 Години

Нова тема   Відповісти