Шерлок. Довгих років життя / Sherlock. Many Happy Returns (2013) 720p Eng | Sub Ukr/Eng

Нові коментарі

Нова тема   Відповісти
Автор Повідомлення
xfsthe 
Оцифрування книг Гуртом
Оцифрування книг Гуртом


З нами з: 13.02.11
Востаннє: 16.08.17
Повідомлень: 279

2014-01-23 01:54  
Шерлок. Довгих років життя / Sherlock. Many Happy Returns (2013) 720p Eng | Sub Ukr/Eng

Шерлок. Довгих років життя / Sherlock. Many Happy Returns (2013) 720p Eng | Sub Ukr/Eng


Жанр: драма, детектив
Країна: Великобританія



Кінокомпанія: BBC
Режисер: Пол Мак-Гіган, Тобі Хейнс
Актори: Бенедикт Камбербетч, Мартін Фріман, Руперт Грейвз, Джонатан Аріс

Сюжет:
Міні-серія, що передує третьому сезону британського серіалу «Шерлок».
У ній розповідається про те, як головні герої серіалу жили два роки після подій останнього епізоду другого сезону.


Тривалість: 00:07:11

Якість: 720p
Відео:
кодек:
розмір кадру: 1280 х 720
бітрейт: 3 500 кб/с

Аудіо:
мова: англійська
переклад: оригінал
кодек: 2.0
бітрейт: 192 кб/с

Субтитри:
мова: українська by xfsthe
тип: програмні (м'які)
формат: *.srt

Субтитри:
мова: англійська
тип: програмні (м'які)
формат: *.srt
Info
General
Unique ID : 263603373201879807421069578339092042315 (0xC65029B9A74F4C99E28D455FC278924B)
Complete name : /home/xfsthe/Відео/Шерлок/Sherlock. Many Happy Returns (2013) [eng] sub [ukr,eng] 720p.
Format :
Format version : Version 2
File size : 191 MiB
Duration : 7mn 11s
Overall bit rate : 3 701 Kbps
Movie name : Шерлок. Довгих років життя / Sherlock. Many Happy Returns (2013) 720p
Encoded date : UTC 2014-01-22 22:38:29
Writing application : mkvmerge v5.1.0 ('And so it goes') built on Feb 1 2012 11:31:23
Writing library : libebml v1.2.2 + libmatroska v1.3.0
Attachment : Yes / Yes

Video
ID : 1
Format : AVC
Format/Info : Advanced Video Codec
Format profile : [email protected]
Format settings, CABAC : Yes
Format settings, ReFrames : 9 frames
Codec ID : V_MPEG4/ISO/AVC
Duration : 7mn 11s
Bit rate : 3 500 Kbps
Width : 1 280 pixels
Height : 720 pixels
Display aspect ratio : 16:9
Frame rate : 25.000 fps
Color space : YUV
Chroma subsampling : 4:2:0
Bit depth : 8 bits
Scan type : Progressive
Bits/(Pixel*Frame) : 0.152
Stream size : 177 MiB (93%)
Title : 1280x720, 3500 kbps, 25 fps
Writing library : core 138 r2358 9e941d1
Encoding settings : cabac=1 / ref=9 / deblock=1:-3:-3 / analyse=0x3:0x113 / me=umh / subme=10 / psy=1 / psy_rd=1.00:0.20 / mixed_ref=1 / me_range=32 / chroma_me=1 / trellis=2 / 8x8dct=1 / cqm=0 / deadzone=21,11 / fast_pskip=0 / chroma_qp_offset=-3 / threads=6 / lookahead_threads=1 / sliced_threads=0 / nr=0 / decimate=1 / interlaced=0 / bluray_compat=0 / constrained_intra=0 / bframes=8 / b_pyramid=2 / b_adapt=2 / b_bias=0 / direct=3 / weightb=1 / open_gop=0 / weightp=2 / keyint=250 / keyint_min=25 / scenecut=40 / intra_refresh=0 / rc_lookahead=60 / rc=2pass / mbtree=1 / bitrate=3500 / ratetol=1.0 / qcomp=0.60 / qpmin=0 / qpmax=69 / qpstep=4 / cplxblur=20.0 / qblur=0.5 / ip_ratio=1.40 / aq=1:1.00
Language : English
Default : Yes
Forced : No

Audio
ID : 2
Format : AC-3
Format/Info : Audio Coding 3
Mode extension : CM (complete main)
Codec ID : A_AC3
Duration : 7mn 11s
Bit rate mode : Constant
Bit rate : 192 Kbps
Channel(s) : 2 channels
Channel positions : Front: L R
Sampling rate : 48.0 KHz
Bit depth : 16 bits
Compression mode : Lossy
Stream size : 9.89 MiB (5%)
Title : 2.0 @ 192 kbps
Language : English
Default : Yes
Forced : No

Text #1
ID : 3
Format : UTF-8
Codec ID : S_TEXT/UTF8
Codec ID/Info : UTF-8 Plain Text
Title : by xfsthe
Language : Ukrainian
Default : Yes
Forced : No

Text #2
ID : 4
Format : UTF-8
Codec ID : S_TEXT/UTF8
Codec ID/Info : UTF-8 Plain Text
Language : English
Default : No
Forced : No
Скріншоти




Джерело:
Особиста оцінка: 10 - без зайвих вагань рекомендую всім!


Золотий реліз (завантажене не впливає на рейтинг)
 Трекер:    Зареєстрований   

Завантажити / скачати серіал українською



відео для новачків



 Зареєстрований:   2014-01-23 01:54
 Розмір:   191 MB 
 Оцінка серіалу:   9.1/10 (Голосів: 33)
   
munipet 
Поважний учасник


З нами з: 14.04.11
Востаннє: 31.07.16
Повідомлень: 227

2014-01-23 04:09  
а коли Шерлок 2014 перекладуть ?
BMK12 
Відео Гуртом - підтримка та поширення
Відео Гуртом - підтримка та поширення


З нами з: 13.04.09
Востаннє: 19.08.17
Повідомлень: 3110

2014-01-23 10:17  
munipet
1+1 робить дубляж. Чекаємо на трансляцію.

Kris 
Новенький


З нами з: 13.11.11
Востаннє: 20.08.17
Повідомлень: 8

2014-01-23 23:57  
BMK12
Трансляція 3-го сезону по 1+1 уже закінчілась.

BMK12 
Відео Гуртом - підтримка та поширення
Відео Гуртом - підтримка та поширення


З нами з: 13.04.09
Востаннє: 19.08.17
Повідомлень: 3110

2014-01-24 00:33  
Kris
Ото ж залишилось зачекати на завершення зведення звуку і відео.

Гуртомівець 
Свій


З нами з: 14.10.14
Востаннє: 18.08.17
Повідомлень: 92

2015-08-10 18:14  
Отака собі зв'язка між 2 та 3 сезонами. Тільки заплутали б, якби не бачив 3 сезону Tongue out (1)
Ваш часовий пояс: GMT + 2 Години

Нова тема   Відповісти