Шерлок (Сезон 2) / Sherlock (Season 2) (2012) 1080p 2xUkr/Eng | Sub Ukr/Eng

Нові коментарі

Нова тема   Відповісти
Автор Повідомлення
xfsthe 
Оцифрування книг Гуртом
Оцифрування книг Гуртом


З нами з: 13.02.11
Востаннє: 28.11.20
Повідомлень: 275

2014-01-22 19:38  
Шерлок (Сезон 2) / Sherlock (Season 2) (2012) 1080p 2xUkr/Eng | Sub Ukr/Eng

Шерлок (Сезон 2) / Sherlock (Season 2) (2012) 1080p 2xUkr/Eng | Sub Ukr/Eng


Жанр: кримінальний, драма, детектив
Країна: Великобританія



Кінокомпанія: BBC
Режисер: Пол Мак-Гіган, Тобі Хейнс
Актори: Бенедикт Камбербетч, Мартін Фрімен, Уна Стаббс, Лу Бриль, Руперт Грейвс, Зої Телфорд, Вінетта Робінсон, Джемма Чан, Джині Спарк

Сюжет:
Продовження пригод Шерлока Холмса і Джона Ватсона в сучасному Лондоні. Другий сезон серіалу про сучасного детектива Холмса починається зі скандалу в Богемії. Глядачі побачать хитромудру авантюристку Ірен Адлер, якій вдалося обдурити самого Шерлока Холмса ...


Тривалість: 1 серія: ~01:30:00 (цілком серій: 3)
Перелік серій
Епізод 01. A Scandal in Belgravia / Скандал у Белґравії
Епізод 02. The Hounds Of Baskerville / Собаки Баскервіля
Епізод 03. The Reichenbach Fall / Рейхенбахський водоспад
Якість: 1080p
Відео:
кодек:
розмір кадру: 1920 х 1080
бітрейт: 10.0 Мб/с

Аудіо # 1:
мова: українська
переклад: професійний дубльований
кодек: 2.0
бітрейт: 256 кб/с

Аудіо # 2: (серія 1,2)
мова: українська
переклад: багатоголосий закадровий
кодек: 5.1
бітрейт: 384 кб/с

Аудіо # 3:
мова: англійська
переклад: оригінал
кодек: 5.1
бітрейт: 448 кб/с

Субтитри:
мова: українська by Serpanok
тип: програмні (м'які)
формат: *.srt

Субтитри:
мова: англійська
тип: програмні (м'які)
формат: *.srt
Info (1 серія)

General
Unique ID : 177069851200585699380099478530083382233 (0x853669B1AFE5F111592DF93470B5E3D9)
Complete name : /home/xfsthe/Відео/Шерлок/Sherlock. Season 2 (2012) [2xukr,eng] sub[ukr,eng] 1080p/Sherlock s02e01. A Scandal in Belgravia (2012) [2xukr,eng] sub [ukr,eng] 1080p.
Format :
Format version : Version 2
File size : 6.96 GiB
Duration : 1h 29mn
Overall bit rate : 11.1 Mbps
Movie name : Шерлок с02e01. Скандал у Белґравії / Sherlock s02e01. A Scandal in Belgravia (2012) 1080p
Encoded date : UTC 2014-01-21 21:39:14
Writing application : v5.1.0 ('And so it goes') built on Feb 1 2012 11:31:23
Writing library : libebml v1.2.2 + v1.3.0

Video
ID : 1
Format : AVC
Format/Info : Advanced Video Codec
Format profile : [email protected]
Format settings, CABAC : Yes
Format settings, ReFrames : 4 frames
Codec ID : V_MPEG4/ISO/AVC
Duration : 1h 29mn
Bit rate : 10.0 Mbps
Width : 1 920 pixels
Height : 1 080 pixels
Display aspect ratio : 16:9
Frame rate : 25.000 fps
Color space : YUV
Chroma subsampling : 4:2:0
Bit depth : 8 bits
Scan type : Progressive
Bits/(Pixel*Frame) : 0.194
Stream size : 6.14 GiB (88%)
Title : 1920x1080, 10.0 Mbps, 25 fps
Writing library : core 120 r2146 bcd41db
Encoding settings : cabac=1 / ref=4 / deblock=1:-1:-1 / analyse=0x3:0x113 / me=hex / subme=7 / psy=1 / psy_rd=1.00:0.00 / mixed_ref=1 / me_range=16 / chroma_me=1 / trellis=1 / 8x8dct=1 / cqm=0 / deadzone=21,11 / fast_pskip=1 / chroma_qp_offset=-2 / threads=6 / sliced_threads=0 / nr=0 / decimate=1 / interlaced=0 / bluray_compat=0 / constrained_intra=0 / bframes=3 / b_pyramid=2 / b_adapt=1 / b_bias=0 / direct=3 / weightb=1 / open_gop=0 / weightp=2 / keyint=250 / keyint_min=25 / scenecut=40 / intra_refresh=0 / rc_lookahead=40 / rc=2pass / mbtree=1 / bitrate=10036 / ratetol=1.0 / qcomp=0.60 / qpmin=10 / qpmax=51 / qpstep=4 / cplxblur=20.0 / qblur=0.5 / vbv_maxrate=50000 / vbv_bufsize=50000 / nal_hrd=none / ip_ratio=1.40 / aq=1:1.00
Language : English
Default : Yes
Forced : No

Audio #1
ID : 2
Format : AC-3
Format/Info : Audio Coding 3
Mode extension : CM (complete main)
Codec ID : A_AC3
Duration : 1h 29mn
Bit rate mode : Constant
Bit rate : 256 Kbps
Channel(s) : 2 channels
Channel positions : Front: L R
Sampling rate : 48.0 KHz
Bit depth : 16 bits
Compression mode : Lossy
Stream size : 164 MiB (2%)
Title : 2.0 @ 256 kbps | дубляж 1+1
Language : Ukrainian
Default : Yes
Forced : No

Audio #2
ID : 3
Format : AC-3
Format/Info : Audio Coding 3
Mode extension : CM (complete main)
Codec ID : A_AC3
Duration : 1h 29mn
Bit rate mode : Constant
Bit rate : 384 Kbps
Channel(s) : 6 channels
Channel positions : Front: L C R, Side: L R, LFE
Sampling rate : 48.0 KHz
Bit depth : 16 bits
Compression mode : Lossy
Stream size : 246 MiB (3%)
Title : 5.1 @ 384 kbps | багатоголосий BaibaKo.tv
Language : Ukrainian
Default : No
Forced : No

Audio #3
ID : 4
Format : AC-3
Format/Info : Audio Coding 3
Mode extension : CM (complete main)
Codec ID : A_AC3
Duration : 1h 29mn
Bit rate mode : Constant
Bit rate : 448 Kbps
Channel(s) : 6 channels
Channel positions : Front: L C R, Side: L R, LFE
Sampling rate : 48.0 KHz
Bit depth : 16 bits
Compression mode : Lossy
Stream size : 287 MiB (4%)
Title : 5.1 @ 448 kbps
Language : English
Default : No
Forced : No

Text #1
ID : 5
Format : UTF-8
Codec ID : S_TEXT/UTF8
Codec ID/Info : UTF-8 Plain Text
Title : by Serpanok
Language : Ukrainian
Default : No
Forced : No

Text #2
ID : 6
Format : UTF-8
Codec ID : S_TEXT/UTF8
Codec ID/Info : UTF-8 Plain Text
Language : English
Default : No
Forced : No
Скріншоти





Подяка
Запис: SgBILko, woxeloid, РОМЕО
Синхронізація: SgBILko
Постер: Gelios


Джерело: &
Особиста оцінка: 10 - без зайвих вагань рекомендую всім!


Бронзовий реліз (на рейтинг впливає 75% завантаженого)
 Трекер:    Зареєстрований   

Завантажити / скачати серіал українською



відео для новачків



 Зареєстрований:   2014-01-22 19:49
 Розмір:   19.54 GB 
 Оцінка серіалу:   9.7/10 (Голосів: 73)
   
casper101 
VIP


З нами з: 03.12.09
Востаннє: 21.11.20
Повідомлень: 451

2016-12-05 15:07  
бонусів не буде.
Ваш часовий пояс: GMT + 2 Години

Нова тема   Відповісти