Антитіла | Дискографія (6 альбомів) (2008-2016) [FLAC] | Pop Rock

Нові коментарі

Нова тема   Відповісти
Автор Повідомлення
ninenine 
Відео Гуртом - фільмокрай
Відео Гуртом - фільмокрай


З нами з: 23.10.09
Востаннє: 26.09.17
Повідомлень: 1151

2014-01-14 20:32  
Антитіла | Дискографія (6 альбомів) (2008-2016) [FLAC] | Pop Rock



Стиль: Pop Rock
Країна, місто: Україна, Київ
Сайти: Офіційний сайт
Видавець: Catapult Music / Moon Records / Comp Music
Виконавці:
Тарас Тополя - вокал, текст
Сергій Вусик - клавішні, аранжування
Віктор Раєвський - бас
Денис Швець - ударні
Нікіта Чухрієнко - гітара
Альбоми:
Будувуду (2008)



Пісні:
1. БудуВуду
2. Я не забуду першу ніч
3. Вода
4. Моя дівчина
5. Бери своє
6. Давай поговоримо
7. Стереодень
8. В твоїх очах
9. А у неї
10. Вернути тебе
11. Маямі
Bonus:
12. Птаха
13. Ми можем все (Max Sivolap interpr.)
14. Я не забуду першу нiч ("2special" mix)
15. В твоїх очах (Rock version)
16. Маямi (Max Sivolap interpr.)

Тривалість: 01:07:00
Мова: українська
Аудіо-кодек: FLAC
Бітрейт: 801-999 кб/с
Додаткова інформація
Не зважаючи на досить коротку ще біографію, гурт "АнтитілА" вже встиг здобути доволі широку популярність в Україні. Особливо, звичайно – серед молоді, і це легко зрозуміти. Справа тут не тільки у, переважно, легких, ліричних текстах. І не тільки у тому запалі, який має практично вся свіжа музика, незалежно від якості. Схоже на те, що якраз до якості гурт ставиться уважно, стежить за модними тенденціями у музиці – або ж просто добре передчуває їх сам (і це був би найліпший варіант). Як би там не було, але звучання цього дебютного альбому хочеться окреслити одним простим словом: актуально. Принаймні, тут є низка складових, з яких може вирости класний поп-рок. Для росту потрібен досвід – звичайно. Але зараз у хлопців є те, чого досвідом не купиш: той самий запал, що здатен захопити навіть сторонню людину і змусити її прислухатися уважніше. Прислухайтесь і Ви...(UMKA)
Звіт EAC
Exact Audio Copy V0.99 prebeta 5 from 4. May 2009

EAC extraction logfile from 14. March 2010, 23:10

Unknown Artist / Unknown Title

Used drive : _NEC DVD_RW ND-2510A Adapter: 1 ID: 0

Read mode : Secure
Utilize accurate stream : Yes
Defeat audio cache : Yes
Make use of C2 pointers : No

Read offset correction : 48
Overread into Lead-In and Lead-Out : No
Fill up missing offset samples with silence : Yes
Delete leading and trailing silent blocks : No
Null samples used in CRC calculations : Yes
Used interface : Native Win32 interface for Win NT & 2000

Used output format : Internal WAV Routines
Sample format : 44.100 Hz; 16 Bit; Stereo

TOC of the extracted CD

Track | Start | Length | Start sector | End sector
---------------------------------------------------------
1 | 0:00.00 | 4:19.05 | 0 | 19429
2 | 4:19.05 | 4:18.00 | 19430 | 38779
3 | 8:37.05 | 4:01.51 | 38780 | 56905
4 | 12:38.56 | 4:56.50 | 56906 | 79155
5 | 17:35.31 | 3:18.52 | 79156 | 94057
6 | 20:54.08 | 3:23.60 | 94058 | 109342
7 | 24:17.68 | 4:05.32 | 109343 | 127749
8 | 28:23.25 | 3:56.03 | 127750 | 145452
9 | 32:19.28 | 3:38.29 | 145453 | 161831
10 | 35:57.57 | 4:02.05 | 161832 | 179986
11 | 39:59.62 | 3:50.39 | 179987 | 197275
12 | 43:50.26 | 3:43.32 | 197276 | 214032
13 | 47:33.58 | 4:30.48 | 214033 | 234330
14 | 52:04.31 | 7:12.17 | 234331 | 266747
15 | 59:16.48 | 3:46.71 | 266748 | 283768
16 | 63:03.44 | 3:56.39 | 283769 | 301507

Range status and errors

Selected range

Filename C:Антитіла - Будувуду.wav

Peak level 100.0 %
Range quality 99.9 %
Test CRC D36D43C4
Copy CRC D36D43C4
Copy OK

No errors occurred

End of status report
Вибирай (2011)



Пісні:
01. Рожеві Діви
02. Леді
03. Амореморе
04. Вибирай
05. Невидимка
06. А Я Відкривав Тебе
07. Власний План
08. Біла Ворона
09. Місця Сили
10. Ів Кусто
11. Колискова
bonus:
12. Рожеві Діви (remix)
13. Смотри В Меня
14. Ів Кусто (radio edit)

Тривалість: 00:56:47
Мова: українська, російська (13)
Аудіо-кодек: FLAC
Бітрейт: 1047 кб/с
Audiochecker
AUDIOCHECKER v2.0 beta (build 457) - by Dester - [email protected]
~~~~~~~~~~~~~~~~~~~~~~~~~~~~~~~~~~

Started at: воскресенье, 26. 08. 2012. - 23:50.20
14 files found

01 -===- D:\torrents.ru\!!! - мої роздачі - !!!\Антитіла - «Вибирай!» (2011) (FLAC)\01. Антитіла - Рожеві Діви.flac
Extracted successfully
Conclusion: this track is CDDA with probability 100%
Tempfile successfully deleted.

02 -===- D:\torrents.ru\!!! - мої роздачі - !!!\Антитіла - «Вибирай!» (2011) (FLAC)\02. Антитіла - Леді.flac
Extracted successfully
Conclusion: this track is CDDA with probability 100%
Tempfile successfully deleted.

03 -===- D:\torrents.ru\!!! - мої роздачі - !!!\Антитіла - «Вибирай!» (2011) (FLAC)\03. Антитіла - Амореморе.flac
Extracted successfully
Conclusion: this track is MPEG with probability 79%
Tempfile successfully deleted.

04 -===- D:\torrents.ru\!!! - мої роздачі - !!!\Антитіла - «Вибирай!» (2011) (FLAC)\04. Антитіла - Вибирай.flac
Extracted successfully
Conclusion: this track is CDDA with probability 100%
Tempfile successfully deleted.

05 -===- D:\torrents.ru\!!! - мої роздачі - !!!\Антитіла - «Вибирай!» (2011) (FLAC)\05. Антитіла - Невидимка.flac
Extracted successfully
Conclusion: this track is CDDA with probability 100%
Tempfile successfully deleted.

06 -===- D:\torrents.ru\!!! - мої роздачі - !!!\Антитіла - «Вибирай!» (2011) (FLAC)\06. Антитіла - А Я Відкривав Тебе.flac
Extracted successfully
Conclusion: this track is CDDA with probability 99%
Tempfile successfully deleted.

07 -===- D:\torrents.ru\!!! - мої роздачі - !!!\Антитіла - «Вибирай!» (2011) (FLAC)\07. Антитіла - Власний План.flac
Extracted successfully
Conclusion: this track is CDDA with probability 100%
Tempfile successfully deleted.

08 -===- D:\torrents.ru\!!! - мої роздачі - !!!\Антитіла - «Вибирай!» (2011) (FLAC)\08. Антитіла - Біла Ворона.flac
Extracted successfully
Conclusion: this track is CDDA with probability 100%
Tempfile successfully deleted.

09 -===- D:\torrents.ru\!!! - мої роздачі - !!!\Антитіла - «Вибирай!» (2011) (FLAC)\09. Антитіла - Місця Сили.flac
Extracted successfully
Conclusion: this track is CDDA with probability 100%
Tempfile successfully deleted.

10 -===- D:\torrents.ru\!!! - мої роздачі - !!!\Антитіла - «Вибирай!» (2011) (FLAC)\10. Антитіла - Ів Кусто.flac
Extracted successfully
Conclusion: this track is CDDA with probability 100%
Tempfile successfully deleted.

11 -===- D:\torrents.ru\!!! - мої роздачі - !!!\Антитіла - «Вибирай!» (2011) (FLAC)\11. Антитіла - Колискова.flac
Extracted successfully
Conclusion: this track is CDDA with probability 100%
Tempfile successfully deleted.

12 -===- D:\torrents.ru\!!! - мої роздачі - !!!\Антитіла - «Вибирай!» (2011) (FLAC)\12. Антитіла - Рожеві Діти (remix) (bonus track).flac
Extracted successfully
Conclusion: this track is MPEG with probability 95%
Tempfile successfully deleted.

13 -===- D:\torrents.ru\!!! - мої роздачі - !!!\Антитіла - «Вибирай!» (2011) (FLAC)\13. Антитіла - Смотри В Меня (bonus track).flac
Extracted successfully
Conclusion: this track is MPEG with probability 95%
Tempfile successfully deleted.

14 -===- D:\torrents.ru\!!! - мої роздачі - !!!\Антитіла - «Вибирай!» (2011) (FLAC)\14. Антитіла - Ів Кусто (radio edit) (bonus track).flac
Extracted successfully
Conclusion: this track is MPEG with probability 95%
Tempfile successfully deleted.

Finished at: воскресенье, 26. 08. 2012. - 23:55.16 (operation time: 0:04.55)
log
Exact Audio Copy V1.0 beta 3 from 29. August 2011

Отчёт EAC об извлечении, выполненном 26. августа 2012, 23:16

Антитіла / «Вибирай!»

Дисковод: ASUS DRW-2014S1T Adapter: 2 ID: 8

Режим чтения : Достоверность
Использование точного потока : Да
Отключение кэша аудио : Да
Использование указателей C2 : Нет

Коррекция смещения при чтении : 6
Способность читать области Lead-in и Lead-out : Нет
Заполнение пропущенных сэмплов тишиной : Да
Удаление блоков с тишиной в начале и конце : Нет
При вычислениях CRC использовались нулевые сэмплы : Да
Интерфейс : Встроенный Win32-интерфейс для Win NT/2000
Обработка зазоров : Не обнаружено, добавлено к предыдущему треку

Выходной формат : Пользовательский кодировщик
Выбранный битрейт : 768 kBit/s
Качество : Высокий
Добавление ID3-тега : Нет
Утилита сжатия : C:\Program Files\Exact Audio Copy\FLAC\FLAC.EXE
Дополнительные параметры : -8 -V -T "ARTIST=%artist%" -T "TITLE=%title%" -T "ALBUM=%albumtitle%" -T "DATE=%year%" -T "TRACKNUMBER=%tracknr%" -T "GENRE=%genre%" -T "COMMENT=%comment%" -T "BAND=%albuminterpret%" -T "ALBUMARTIST=%albuminterpret%" -T "COMPOSER=%composer%" %haslyrics%--tag-from-file=LYRICS="%lyricsfile%"%haslyrics% -T "DISCNUMBER=%cdnumber%" -T "TOTALDISCS=%totalcds%" -T "TOTALTRACKS=%numtracks%" %hascover%--picture="%coverfile%"%hascover% %source% -o %dest%

TOC извлечённого CD

Трек | Старт | Длительность | Начальный сектор | Конечный сектор
---------------------------------------------------------------------
1 | 0:00.00 | 3:45.37 | 0 | 16911
2 | 3:45.37 | 3:48.64 | 16912 | 34075
3 | 7:34.26 | 3:15.50 | 34076 | 48750
4 | 10:50.01 | 4:30.24 | 48751 | 69024
5 | 15:20.25 | 3:43.25 | 69025 | 85774
6 | 19:03.50 | 4:19.25 | 85775 | 105224
7 | 23:23.00 | 3:51.38 | 105225 | 122587
8 | 27:14.38 | 3:55.26 | 122588 | 140238
9 | 31:09.64 | 3:04.52 | 140239 | 154090
10 | 34:14.41 | 4:26.45 | 154091 | 174085
11 | 38:41.11 | 4:30.24 | 174086 | 194359
12 | 43:11.35 | 5:36.36 | 194360 | 219595
13 | 48:47.71 | 3:54.12 | 219596 | 237157
14 | 52:42.08 | 4:05.13 | 237158 | 255545

Трек 1

Имя файла D:\Documents and Settings\user\Рабочий стол\«»—0–\01. Антитіла - Рожеві Діви.wav

Пиковый уровень 100.0 %
Скорость извлечения 4.2 X
Качество трека 100.0 %
CRC копии 5A72648D
Трек не обнаружен в базе AccurateRip
Копирование... OK

Трек 2

Имя файла D:\Documents and Settings\user\Рабочий стол\«»—0–\02. Антитіла - Леді.wav

Пиковый уровень 100.0 %
Скорость извлечения 5.4 X
Качество трека 100.0 %
CRC копии ECBAD234
Трек не обнаружен в базе AccurateRip
Копирование... OK

Трек 3

Имя файла D:\Documents and Settings\user\Рабочий стол\«»—0–\03. Антитіла - Амореморе.wav

Пиковый уровень 100.0 %
Скорость извлечения 5.7 X
Качество трека 100.0 %
CRC копии 4BCBA46B
Трек не обнаружен в базе AccurateRip
Копирование... OK

Трек 4

Имя файла D:\Documents and Settings\user\Рабочий стол\«»—0–\04. Антитіла - Вибирай.wav

Пиковый уровень 100.0 %
Скорость извлечения 6.6 X
Качество трека 100.0 %
CRC копии E0B0C808
Трек не обнаружен в базе AccurateRip
Копирование... OK

Трек 5

Имя файла D:\Documents and Settings\user\Рабочий стол\«»—0–\05. Антитіла - Невидимка.wav

Пиковый уровень 100.0 %
Скорость извлечения 6.7 X
Качество трека 100.0 %
CRC копии 7D2B1F95
Трек не обнаружен в базе AccurateRip
Копирование... OK

Трек 6

Имя файла D:\Documents and Settings\user\Рабочий стол\«»—0–\06. Антитіла - А Я Відкривав Тебе.wav

Пиковый уровень 100.0 %
Скорость извлечения 7.3 X
Качество трека 100.0 %
CRC копии 63B0AD2C
Трек не обнаружен в базе AccurateRip
Копирование... OK

Трек 7

Имя файла D:\Documents and Settings\user\Рабочий стол\«»—0–\07. Антитіла - Власний План.wav

Пиковый уровень 100.0 %
Скорость извлечения 7.6 X
Качество трека 100.0 %
CRC копии F4EA7DF2
Трек не обнаружен в базе AccurateRip
Копирование... OK

Трек 8

Имя файла D:\Documents and Settings\user\Рабочий стол\«»—0–\08. Антитіла - Біла Ворона.wav

Пиковый уровень 100.0 %
Скорость извлечения 6.5 X
Качество трека 99.9 %
CRC копии 2DDD90E3
Трек не обнаружен в базе AccurateRip
Копирование... OK

Трек 9

Имя файла D:\Documents and Settings\user\Рабочий стол\«»—0–\09. Антитіла - Місця Сили.wav

Пиковый уровень 100.0 %
Скорость извлечения 7.6 X
Качество трека 100.0 %
CRC копии BEFEBF04
Трек не обнаружен в базе AccurateRip
Копирование... OK

Трек 10

Имя файла D:\Documents and Settings\user\Рабочий стол\«»—0–\10. Антитіла - Ів Кусто.wav

Пиковый уровень 100.0 %
Скорость извлечения 7.1 X
Качество трека 99.9 %
CRC копии 943B708D
Трек не обнаружен в базе AccurateRip
Копирование... OK

Трек 11

Имя файла D:\Documents and Settings\user\Рабочий стол\«»—0–\11. Антитіла - Колискова.wav

Пиковый уровень 100.0 %
Скорость извлечения 8.5 X
Качество трека 100.0 %
CRC копии C2BE54FD
Трек не обнаружен в базе AccurateRip
Копирование... OK

Трек 12

Имя файла D:\Documents and Settings\user\Рабочий стол\«»—0–\12. Антитіла - Рожеві Діти (remix) (bonus track).wav

Пиковый уровень 100.0 %
Скорость извлечения 9.4 X
Качество трека 100.0 %
CRC копии 3F87956B
Трек не обнаружен в базе AccurateRip
Копирование... OK

Трек 13

Имя файла D:\Documents and Settings\user\Рабочий стол\«»—0–\13. Антитіла - Смотри В Меня (bonus track).wav

Пиковый уровень 100.0 %
Скорость извлечения 9.4 X
Качество трека 100.0 %
CRC копии 3B4CB21F
Трек не обнаружен в базе AccurateRip
Копирование... OK

Трек 14

Имя файла D:\Documents and Settings\user\Рабочий стол\«»—0–\14. Антитіла - Ів Кусто (radio edit) (bonus track).wav

Пиковый уровень 97.0 %
Скорость извлечения 9.5 X
Качество трека 100.0 %
CRC копии 0343695A
Трек не обнаружен в базе AccurateRip
Копирование... OK

Ни одного трека нет в базе AccurateRip

Ошибок не произошло

Конец отчёта
Над Полюсами (2013)



Пісні:
01. Метро
02. Generation «F»
03. Ім’я не моє
04. Над полюсами
05. Олена
06. Засинай мене (Мамі)
07. Хурма
08. Незалежний
09. Тебе моя невеста
10. Племя
11. Полинезийская зима (feat. Табула Раса)
12. Як ангели
13. І всю ніч
14. Новини на завтра
15. Їдем-їдем

Тривалість: 00:54:28
Мова: українська (1-8, 12-15), російська (9-11)
Аудіо-кодек: FLAC
Бітрейт: 1018 кб/с
Audiochecker
AUDIOCHECKER v2.0 beta (build 457) - by Dester - [email protected]
~~~~~~~~~~~~~~~~~~~~~~~~~~~~~~~~~~

Started at: среда, 11. 12. 2013. - 14:04.50
15 files found

01 -===- D:\hurtom.com\Антитіла - «Над Полюсами» (2013) (FLAC)\01 Антитіла Метро.flac
Extracted successfully
Conclusion: this track is CDDA with probability 99%
Tempfile successfully deleted.

02 -===- D:\hurtom.com\Антитіла - «Над Полюсами» (2013) (FLAC)\02 Антитіла Generation «F».flac
Extracted successfully
Conclusion: this track is CDDA with probability 100%
Tempfile successfully deleted.

03 -===- D:\hurtom.com\Антитіла - «Над Полюсами» (2013) (FLAC)\03 Антитіла Ім'я Не Моє.flac
Extracted successfully
Conclusion: this track is CDDA with probability 100%
Tempfile successfully deleted.

04 -===- D:\hurtom.com\Антитіла - «Над Полюсами» (2013) (FLAC)\04 Антитіла Над Полюсами.flac
Extracted successfully
Conclusion: this track is CDDA with probability 100%
Tempfile successfully deleted.

05 -===- D:\hurtom.com\Антитіла - «Над Полюсами» (2013) (FLAC)\05 Антитіла Олена.flac
Extracted successfully
Conclusion: this track is CDDA with probability 100%
Tempfile successfully deleted.

06 -===- D:\hurtom.com\Антитіла - «Над Полюсами» (2013) (FLAC)\06 Антитіла Засинай Мене (Мамі).flac
Extracted successfully
Conclusion: this track is CDDA with probability 100%
Tempfile successfully deleted.

07 -===- D:\hurtom.com\Антитіла - «Над Полюсами» (2013) (FLAC)\07 Антитіла Хурма.flac
Extracted successfully
Conclusion: this track is CDDA with probability 100%
Tempfile successfully deleted.

08 -===- D:\hurtom.com\Антитіла - «Над Полюсами» (2013) (FLAC)\08 Антитіла Незалежний.flac
Extracted successfully
Conclusion: this track is CDDA with probability 100%
Tempfile successfully deleted.

09 -===- D:\hurtom.com\Антитіла - «Над Полюсами» (2013) (FLAC)\09 Антитіла Тебе Моя Невеста.flac
Extracted successfully
Conclusion: this track is CDDA with probability 100%
Tempfile successfully deleted.

10 -===- D:\hurtom.com\Антитіла - «Над Полюсами» (2013) (FLAC)\10 Антитіла Племя.flac
Extracted successfully
Conclusion: this track is CDDA with probability 100%
Tempfile successfully deleted.

11 -===- D:\hurtom.com\Антитіла - «Над Полюсами» (2013) (FLAC)\11 Антитіла Полинезийская Зима (feat. Табула Раса).flac
Extracted successfully
Conclusion: this track is CDDA with probability 100%
Tempfile successfully deleted.

12 -===- D:\hurtom.com\Антитіла - «Над Полюсами» (2013) (FLAC)\12 Антитіла Як Ангели.flac
Extracted successfully
Conclusion: this track is CDDA with probability 100%
Tempfile successfully deleted.

13 -===- D:\hurtom.com\Антитіла - «Над Полюсами» (2013) (FLAC)\13 Антитіла І Всю Ніч.flac
Extracted successfully
Conclusion: this track is CDDA with probability 100%
Tempfile successfully deleted.

14 -===- D:\hurtom.com\Антитіла - «Над Полюсами» (2013) (FLAC)\14 Антитіла Новини На Завтра.flac
Extracted successfully
Conclusion: this track is CDDA with probability 99%
Tempfile successfully deleted.

15 -===- D:\hurtom.com\Антитіла - «Над Полюсами» (2013) (FLAC)\15 Антитіла Їдем-Їдем.flac
Extracted successfully
Conclusion: this track is CDDA with probability 100%
Tempfile successfully deleted.

Finished at: среда, 11. 12. 2013. - 14:10.58 (operation time: 0:06.07)
Log
Exact Audio Copy V1.0 beta 3 from 29. August 2011

Отчёт EAC об извлечении, выполненном 11. декабря 2013, 13:58

Антитіла / Над Полюсами

Дисковод: ASUS DRW-2014S1T Adapter: 2 ID: 8

Режим чтения : Достоверность
Использование точного потока : Да
Отключение кэша аудио : Да
Использование указателей C2 : Нет

Коррекция смещения при чтении : 6
Способность читать области Lead-in и Lead-out : Нет
Заполнение пропущенных сэмплов тишиной : Да
Удаление блоков с тишиной в начале и конце : Нет
При вычислениях CRC использовались нулевые сэмплы : Да
Интерфейс : Встроенный Win32-интерфейс для Win NT/2000
Обработка зазоров : Добавлено к предыдущему треку

Выходной формат : Пользовательский кодировщик
Выбранный битрейт : 128 kBit/s
Качество : Высокий
Добавление ID3-тега : Нет
Утилита сжатия : C:\Program Files\Exact Audio Copy\Flac\flac.exe
Дополнительные параметры : -V -8 -T "Genre=%genre%" -T "Artist=%artist%" -T "Title=%title%" -T "Album=%albumtitle%" -T "Date=%year%" -T "Tracknumber=%tracknr%" -T "Comment=%comment%" %source%

TOC извлечённого CD

Трек | Старт | Длительность | Начальный сектор | Конечный сектор
---------------------------------------------------------------------
1 | 0:00.00 | 3:43.67 | 0 | 16791
2 | 3:43.67 | 3:34.64 | 16792 | 32905
3 | 7:18.56 | 3:59.35 | 32906 | 50865
4 | 11:18.16 | 3:56.10 | 50866 | 68575
5 | 15:14.26 | 3:45.15 | 68576 | 85465
6 | 18:59.41 | 4:09.30 | 85466 | 104170
7 | 23:08.71 | 3:31.46 | 104171 | 120041
8 | 26:40.42 | 3:44.24 | 120042 | 136865
9 | 30:24.66 | 3:31.17 | 136866 | 152707
10 | 33:56.08 | 2:59.44 | 152708 | 166176
11 | 36:55.52 | 3:02.57 | 166177 | 179883
12 | 39:58.34 | 3:57.73 | 179884 | 197731
13 | 43:56.32 | 3:39.27 | 197732 | 214183
14 | 47:35.59 | 3:32.48 | 214184 | 230131
15 | 51:08.32 | 3:26.37 | 230132 | 245618

Трек 1

Имя файла D:\Documents and Settings\user\Рабочий стол\«»—0–\01 Антитіла Метро.wav

Длина предзазора 0:00:02.00

Пиковый уровень 94.3 %
Скорость извлечения 5.0 X
Качество трека 100.0 %
CRC копии 8F725925
Копирование... OK

Трек 2

Имя файла D:\Documents and Settings\user\Рабочий стол\«»—0–\02 Антитіла Generation «F».wav

Пиковый уровень 94.3 %
Скорость извлечения 5.5 X
Качество трека 100.0 %
CRC копии 6561F868
Копирование... OK

Трек 3

Имя файла D:\Documents and Settings\user\Рабочий стол\«»—0–\03 Антитіла Ім'я Не Моє.wav

Пиковый уровень 94.3 %
Скорость извлечения 6.0 X
Качество трека 100.0 %
CRC копии 0009D02A
Копирование... OK

Трек 4

Имя файла D:\Documents and Settings\user\Рабочий стол\«»—0–\04 Антитіла Над Полюсами.wav

Пиковый уровень 94.3 %
Скорость извлечения 6.5 X
Качество трека 100.0 %
CRC копии 38727949
Копирование... OK

Трек 5

Имя файла D:\Documents and Settings\user\Рабочий стол\«»—0–\05 Антитіла Олена.wav

Пиковый уровень 94.3 %
Скорость извлечения 6.9 X
Качество трека 100.0 %
CRC копии 277AD77B
Копирование... OK

Трек 6

Имя файла D:\Documents and Settings\user\Рабочий стол\«»—0–\06 Антитіла Засинай Мене (Мамі).wav

Пиковый уровень 94.3 %
Скорость извлечения 7.0 X
Качество трека 100.0 %
CRC копии 0BA5C662
Копирование... OK

Трек 7

Имя файла D:\Documents and Settings\user\Рабочий стол\«»—0–\07 Антитіла Хурма.wav

Пиковый уровень 94.3 %
Скорость извлечения 7.4 X
Качество трека 100.0 %
CRC копии 4455BA63
Копирование... OK

Трек 8

Имя файла D:\Documents and Settings\user\Рабочий стол\«»—0–\08 Антитіла Незалежний.wav

Пиковый уровень 94.3 %
Скорость извлечения 7.7 X
Качество трека 100.0 %
CRC копии 0E6786DE
Копирование... OK

Трек 9

Имя файла D:\Documents and Settings\user\Рабочий стол\«»—0–\09 Антитіла Тебе Моя Невеста.wav

Пиковый уровень 94.3 %
Скорость извлечения 8.2 X
Качество трека 100.0 %
CRC копии 9E7603B2
Копирование... OK

Трек 10

Имя файла D:\Documents and Settings\user\Рабочий стол\«»—0–\10 Антитіла Племя.wav

Пиковый уровень 94.3 %
Скорость извлечения 6.9 X
Качество трека 99.9 %
CRC копии 07A05197
Копирование... OK

Трек 11

Имя файла D:\Documents and Settings\user\Рабочий стол\«»—0–\11 Антитіла Полинезийская Зима (feat. Табула Раса).wav

Пиковый уровень 89.1 %
Скорость извлечения 8.2 X
Качество трека 100.0 %
CRC копии B36FF708
Копирование... OK

Трек 12

Имя файла D:\Documents and Settings\user\Рабочий стол\«»—0–\12 Антитіла Як Ангели.wav

Пиковый уровень 94.3 %
Скорость извлечения 8.9 X
Качество трека 100.0 %
CRC копии 6A42326E
Копирование... OK

Трек 13

Имя файла D:\Documents and Settings\user\Рабочий стол\«»—0–\13 Антитіла І Всю Ніч.wav

Пиковый уровень 100.0 %
Скорость извлечения 9.0 X
Качество трека 100.0 %
CRC копии 9BDE0A4C
Копирование... OK

Трек 14

Имя файла D:\Documents and Settings\user\Рабочий стол\«»—0–\14 Антитіла Новини На Завтра.wav

Пиковый уровень 94.3 %
Скорость извлечения 9.4 X
Качество трека 100.0 %
CRC копии A0274673
Копирование... OK

Трек 15

Имя файла D:\Documents and Settings\user\Рабочий стол\«»—0–\15 Антитіла Їдем-Їдем.wav

Пиковый уровень 95.3 %
Скорость извлечения 8.2 X
Качество трека 99.9 %
CRC копии 89FD7C98
Копирование... OK

Ошибок не произошло

Конец отчёта

==== Контрольная сумма отчёта 827754F5316045F6DD3AF9B2F6774AA48EEDB16FE6AC14AC34632CA458153243 ====
Special CD (2013)



Пісні:
01. Смотри в меня + video
02. Весна любовь (feat T.O.T.A.L.)
03. Невидимка + video
04. А я відкривав тебе + video
05. Моя дівчина
06. Маямі
07. Полинезийская зима (feat Табула Раса) + video
08. І всю ніч
09. Бери своє
10. Будувуду
11. Ів кусто
12. Колискова
13. Вибирай
14. Рожеві діви
15. Тебе моя невеста
Відео:
Смотри в меня
Тривалість: 00:03:54
Відео:
кодек: H264
розмір кадру: 1920*1080
бітрейт: 989 Кбіт/с

Аудіо:
мова: російська
кодек:
бітрейт: 192 кбіт/с
Скріншоти:
Невидимка
Тривалість: 00:04:06
Відео:
кодек: H264
розмір кадру: 1280*720
бітрейт: 1027 Кбіт/с

Аудіо:
мова: українська
кодек:
бітрейт: 192 кбіт/с
Скріншоти:
А я відкривав тебе
Тривалість: 00:04:21
Відео:
кодек: H264
розмір кадру: 1920*1080
бітрейт: 1001 Кбіт/с

Аудіо:
мова: українська
кодек:
бітрейт: 192 кбіт/с
Скріншоти:
Полинезийская зима (feat Табула Раса)
Тривалість: 00:03:17
Відео:
кодек: H264
розмір кадру: 1280*720
бітрейт: 1013 Кбіт/с

Аудіо:
мова: українська, російська
кодек:
бітрейт: 192 кбіт/с
Скріншоти:
Тривалість: 01:16:18
Мова: українська (3-6, 8-14), російська (1, 2, 7, 15)
Аудіо-кодек: FLAC
Бітрейт: 991 кб/с
Видавець: Moon Records
Про альбом
Special CD – дійсно особливий диск. Пісні, що увійшли до нього, відбиралися музикантами власноруч, а випуск платівки був присвячений 5-літтю існування колективу.
Тут зібрані драйвові і ліричні композиції з усіх попередніх альбомів, а сам альбом до цього моменту можливо було придбати лише на концертах групи, або отримати у подарунок. Тепер він став доступний для покупки у фірмовому фан-шопі групи. Замовляйте і насолоджуйтесь відбірними треками з “перших рук”!
Звіт EAC:
Exact Audio Copy V1.0 beta 3 from 29. August 2011

EAC extraction logfile from 4. September 2015, 22:49

Антитіла / Special CD

Used drive : ATAPI iHAS124 B Adapter: 4 ID: 0

Read mode : Secure
Utilize accurate stream : Yes
Defeat audio cache : Yes
Make use of C2 pointers : No

Read offset correction : 6
Overread into Lead-In and Lead-Out : No
Fill up missing offset samples with silence : Yes
Delete leading and trailing silent blocks : No
Null samples used in CRC calculations : Yes
Used interface : Native Win32 interface for Win NT & 2000

Used output format : Internal WAV Routines
Sample format : 44.100 Hz; 16 Bit; Stereo

TOC of the extracted CD

Track | Start | Length | Start sector | End sector
---------------------------------------------------------
1 | 0:00.00 | 3:58.20 | 0 | 17869
2 | 3:58.20 | 4:28.00 | 17870 | 37969
3 | 8:26.20 | 3:45.27 | 37970 | 54871
4 | 12:11.47 | 4:23.32 | 54872 | 74628
5 | 16:35.04 | 5:00.57 | 74629 | 97185
6 | 21:35.61 | 3:54.46 | 97186 | 114781
7 | 25:30.32 | 3:04.60 | 114782 | 128641
8 | 28:35.17 | 3:41.30 | 128642 | 145246
9 | 32:16.47 | 3:14.58 | 145247 | 159854
10 | 35:31.30 | 4:13.00 | 159855 | 178829
11 | 39:44.30 | 4:30.52 | 178830 | 199131
12 | 44:15.07 | 4:34.30 | 199132 | 219711
13 | 48:49.37 | 4:32.27 | 219712 | 240138
14 | 53:21.64 | 3:47.34 | 240139 | 257197
15 | 57:09.23 | 3:29.20 | 257198 | 272892
16 | 63:10.43 | 15:22.04 | 284293 | 353446

Range status and errors

Selected range

Filename I:\Українська музика\Антитіла - 2013 - Special CD\Антитіла - 2013 - Special CD.wav

Peak level 100.0 %
Extraction speed 1.9 X
Range quality 100.0 %
Test CRC A3B8B007
Copy CRC A3B8B007
Copy OK

No errors occurred

AccurateRip summary

Track 1 not present in database
Track 2 not present in database
Track 3 not present in database
Track 4 not present in database
Track 5 not present in database
Track 6 not present in database
Track 7 not present in database
Track 8 not present in database
Track 9 not present in database
Track 10 not present in database
Track 11 not present in database
Track 12 not present in database
Track 13 not present in database
Track 14 not present in database
Track 15 not present in database

None of the tracks are present in the AccurateRip database

End of status report

==== Log checksum 24E31CA1C029472240B2B9ECBEE56964643C2F724857AA49B63358B2E46EE778 ====
Все красиво (2015)



Пісні:
1. Все красиво (3:39)
2. Хороша пісня (3:35)
3. Дій (3:10)
4. Мені тебе мало (4:05)
5. Лампа (3:40)
6. Ярмо (4:14)
7. У книжках (3:57)
8. Молоком (3:57)
9. Завжди моя (3:50)
10. Все красиво (DJ Konstantin Ozeroff & DJ Sky Remix) (3:08)

Тривалість: 00:37:15
Мова: українська
Аудіо-кодек: FLAC
Бітрейт: 1016 кб/с
log
Exact Audio Copy V1.0 beta 3 from 29. August 2011

EAC extraction logfile from 30. May 2015, 22:52

АнтитілА / Все красиво

Used drive : ATAPI iHAS124 B Adapter: 3 ID: 0

Read mode : Secure
Utilize accurate stream : Yes
Defeat audio cache : Yes
Make use of C2 pointers : No

Read offset correction : 6
Overread into Lead-In and Lead-Out : No
Fill up missing offset samples with silence : Yes
Delete leading and trailing silent blocks : No
Null samples used in CRC calculations : Yes
Used interface : Native Win32 interface for Win NT & 2000

Used output format : Internal WAV Routines
Sample format : 44.100 Hz; 16 Bit; Stereo

TOC of the extracted CD

Track | Start | Length | Start sector | End sector
---------------------------------------------------------
1 | 0:00.00 | 3:39.47 | 0 | 16471
2 | 3:39.47 | 3:35.73 | 16472 | 32669
3 | 7:15.45 | 3:10.72 | 32670 | 46991
4 | 10:26.42 | 4:05.22 | 46992 | 65388
5 | 14:31.64 | 3:40.64 | 65389 | 81952
6 | 18:12.53 | 4:14.02 | 81953 | 101004
7 | 22:26.55 | 3:57.22 | 101005 | 118801
8 | 26:24.02 | 3:57.41 | 118802 | 136617
9 | 30:21.43 | 3:50.41 | 136618 | 153908
10 | 34:12.09 | 3:08.02 | 153909 | 168010

Range status and errors

Selected range

Filename I:\Українська музика\Антитіла\АнтитілА - 2015 - Все красиво\АнтитілА - 2015 - Все красиво.wav

Peak level 100.0 %
Extraction speed 5.2 X
Range quality 100.0 %
Test CRC B9DAF796
Copy CRC B9DAF796
Copy OK

No errors occurred

AccurateRip summary

Track 1 not present in database
Track 2 not present in database
Track 3 not present in database
Track 4 not present in database
Track 5 not present in database
Track 6 not present in database
Track 7 not present in database
Track 8 not present in database
Track 9 not present in database
Track 10 not present in database

None of the tracks are present in the AccurateRip database

End of status report

---- CUETools DB Plugin V2.1.3

[CTDB TOCID: Dpmx53YbB6Zznc3SD6mNbJtiI_U-] disk not present in database, Submit result: Dpmx53YbB6Zznc3SD6mNbJtiI_U- has been uploaded

==== Log checksum 748029BDAE789A1B2992DEDB9823B743270F2E5CC2652476675F7AC17623C413 ====
Сонце (2016)



Пісні:
1. Танцюй
2. Два акорди
3. Твоє тіло
4. Лав
5. Одинак
6. Люди як кораблі
7. Дунай
8. Фари
9. Ми

Тривалість: 00:33:52
Мова: українська
Аудіо-кодек: FLAC
Бітрейт: 874-1034 кб/с
log
Exact Audio Copy V1.3 from 2. September 2016

Отчёт EAC об извлечении, выполненном 27. марта 2017, 19:01

Антитіла / Сонце

Дисковод: HL-DT-STDVD-RAM GH22NP20 Adapter: 1 ID: 0

Режим чтения : Достоверность
Использование точного потока : Да
Отключение кэша аудио : Да
Использование указателей C2 : Нет

Коррекция смещения при чтении : 102
Способность читать области Lead-in и Lead-out : Нет
Заполнение пропущенных сэмплов тишиной : Да
Удаление блоков с тишиной в начале и конце : Нет
При вычислениях CRC использовались нулевые сэмплы : Да
Интерфейс : Встроенный Win32-интерфейс для Win NT/2000
Обработка зазоров : Добавлено к следующему треку

Выходной формат : Пользовательский кодировщик
Выбранный битрейт : 768 kBit/s
Качество : Высокий
Добавление ID3-тега : Нет
Утилита сжатия : C:\Program Files (x86)\Exact Audio Copy\FLAC\FLAC.EXE
Дополнительные параметры : -V -8 -T "Genre=%genre%" -T "Artist=%artist%" -T "Title=%title%" -T "Album=%albumtitle%" -T "Date=%year%" -T "Tracknumber=%tracknr%" -T "Comment=%comment%" %source%

TOC извлечённого CD

Трек | Старт | Длительность | Начальный сектор | Конечный сектор
---------------------------------------------------------------------
1 | 0:00.00 | 3:47.59 | 0 | 17083
2 | 3:47.59 | 3:34.53 | 17084 | 33186
3 | 7:22.37 | 4:27.69 | 33187 | 53280
4 | 11:50.31 | 3:05.16 | 53281 | 67171
5 | 14:55.47 | 4:03.46 | 67172 | 85442
6 | 18:59.18 | 4:11.66 | 85443 | 104333
7 | 23:11.09 | 3:35.61 | 104334 | 120519
8 | 26:46.70 | 3:38.44 | 120520 | 136913
9 | 30:25.39 | 3:26.50 | 136914 | 152413

Трек 1

Имя файла C:\Users\Ruslan\Desktop\01. Антитіла - Танцюй.wav

Длина предзазора 0:00:02.00

Пиковый уровень 100.0 %
Скорость извлечения 1.5 X
Качество трека 100.0 %
CRC теста 3AF7487D
CRC копии 3AF7487D
Трек не обнаружен в базе AccurateRip
Копирование... OK

Трек 2

Имя файла C:\Users\Ruslan\Desktop\02. Антитіла - Два акорди.wav

Пиковый уровень 100.0 %
Скорость извлечения 1.6 X
Качество трека 100.0 %
CRC теста 6FB17785
CRC копии 6FB17785
Трек не обнаружен в базе AccurateRip
Копирование... OK

Трек 3

Имя файла C:\Users\Ruslan\Desktop\03. Антитіла - Твоє тіло.wav

Пиковый уровень 100.0 %
Скорость извлечения 1.7 X
Качество трека 99.9 %
CRC теста B62987DA
CRC копии B62987DA
Трек не обнаружен в базе AccurateRip
Копирование... OK

Трек 4

Имя файла C:\Users\Ruslan\Desktop\04. Антитіла - Лав.wav

Пиковый уровень 100.0 %
Скорость извлечения 1.9 X
Качество трека 100.0 %
CRC теста 27809C94
CRC копии 27809C94
Трек не обнаружен в базе AccurateRip
Копирование... OK

Трек 5

Имя файла C:\Users\Ruslan\Desktop\05. Антитіла - Одинак.wav

Пиковый уровень 100.0 %
Скорость извлечения 2.2 X
Качество трека 100.0 %
CRC теста D04738BC
CRC копии D04738BC
Трек не обнаружен в базе AccurateRip
Копирование... OK

Трек 6

Имя файла C:\Users\Ruslan\Desktop\06. Антитіла - Люди як кораблі.wav

Пиковый уровень 100.0 %
Скорость извлечения 2.3 X
Качество трека 100.0 %
CRC теста D585EC1E
CRC копии D585EC1E
Трек не обнаружен в базе AccurateRip
Копирование... OK

Трек 7

Имя файла C:\Users\Ruslan\Desktop\07. Антитіла - Дунай.wav

Пиковый уровень 100.0 %
Скорость извлечения 2.1 X
Качество трека 99.9 %
CRC теста 3D8A72FC
CRC копии 3D8A72FC
Трек не обнаружен в базе AccurateRip
Копирование... OK

Трек 8

Имя файла C:\Users\Ruslan\Desktop\08. Антитіла - Фари.wav

Пиковый уровень 100.0 %
Скорость извлечения 2.5 X
Качество трека 100.0 %
CRC теста 002868DE
CRC копии 002868DE
Трек не обнаружен в базе AccurateRip
Копирование... OK

Трек 9

Имя файла C:\Users\Ruslan\Desktop\09. Антитіла - Ми.wav

Пиковый уровень 100.0 %
Скорость извлечения 2.5 X
Качество трека 100.0 %
CRC теста A2211391
CRC копии A2211391
Трек не обнаружен в базе AccurateRip
Копирование... OK

Ни одного трека нет в базе AccurateRip

Ошибок не произошло

Конец отчёта

---- CUETools DB Plugin V2.1.6

[CTDB TOCID: 0qMMY1z9Zuans.buUYbReTHJ26o-] disk not present in database
Submit result: 0qMMY1z9Zuans.buUYbReTHJ26o- has been uploaded

==== Контрольная сумма отчёта 6B19CB42A251124501EE931D4DFDF70FA2C8DDA4799C2E52D6EA4575F4DEC53C ====
Тривалість: 05:25:52
Мова: українська, російська
Аудіо-кодек: FLAC
Бітрейт: 899-1117кб/с
Джерело:
Біографія гурту:
2004
Назва
Влітку 2004-го Тарас Тополя в колективі з друзями на випускному вечорі виконує власну однойменну пісню «АнтитілА». У ній йдеться про протилежності, що дуже різняться, але не можуть бути один без одного. Назва пісні стане в майбутньому назвою музичної групи, а зміст, закладений у це слово, поглибиться до філософського.
2005-2006
Освіта і мрії
Тарас Тополя, як і більшість майбутніх учасників гурту, навчаються в університетах або працюють, мріють про велику сцену і навіть не підозрюють, що у недалекому 2007-му зберуться в міцну рок-банду з неймовірно цікавим життям!
2007
Перший «Шанс»
Уся Україна вже протягом кількох років щонеділі збирається біля телевізорів на перегляд музичної програми «Шанс» на телеканалі «Інтер», де молоді й талановиті виконавці, переспівуючи чужі хіти, отримують можливість потрапити на велику сцену. АнтитілА беруть участь у проекті і, вперше в історії програми, співають не чужу, а власну пісню «Я не забуду першу ніч». Гурт не стає переможцем, проте отримує набагато більше – прихильність української молоді. Відразу після ефіру пісню «Я не забуду першу ніч» з офіційного сайту гурту завантажили 30 000 разів, а радіостанція «Prosto-radio» бере трек у щільну ротацію.
Перший тур
Компанія «Спека Мьюзік» запрошує АнтитілА у open-air тур містами України. На майданах Києва, Чернігова, Умані, Сум, Черкас підспівували Антитілам ті, хто стали свідками дебюту гурту на великій сцені.
2008
Перезавантаження
Узимку Тарас виходить зі складу гурту, забираючи із собою і саму назву «АнтитілА».
Навесні 2008-го формується сучасний склад «Антитіл» – той, який всі звикли бачити на екранах і афішах протягом останніх років. Із старого складу залишаються Тарас Тополя та барабанщик Олексій Скурідін.
До гурту входить друг і колега Тараса Тополі, прекрасний музикант Сергій Вусик, що бере на себе електронну складову в саунді команди. На бас стає Віктор Раєвський, який вірить в команду і професійно доповнює колектив. До них долучається гітарист Нікіта Чухриєнко. Так формуються сучасні АнтитілА. Менеджмент бере на себе Олена Красько. Усе по новому, все з чистого аркуша! Саме 2008-й рік вважається роком створення сучасних Антитіл.
Контракт
Півроку АнтитілА проводять на репетиційній базі та студії, створюючи та записуючи нові пісні. У цей період гурт отримує пропозиції щодо співпраці від кількох відомих продюсерських центрів. Після ознайомлення з умовами контрактів, АнтитілА відмовляються від усіх, поки не отримують запрошення від «Catapult Music». Заявлені компанією умови задовольняють обидві сторони, і влітку АнтитілА підписують свій перший продюсерський контракт.
Відеокліпи, дебютний альбом
У період літа-осені 2008-го АнтитілА знімають перші відео-кліпи на пісні «Маямі» та «Будувуду» а також випускають дебютний альбом «Будувуду», до якого входять 16 пісень. Вперше пісні гурту потрапляють на екрани телевізорів, а кліп «Будувуду» за два тижні доходить до вершини кліп-параду головного музичного каналу країни «М1»!
Перлини сезону
Також влітку АнттитілА стають переможцями культового українського фестивалю молодих виконавців – «Перлини сезону», серед всіх фіналістів за останні 14 років його існування, з якого свого часу взяли старт такі гурти як «Океан Ельзи», «ТНМК», «ТАРТАК».
Премія «Непопса», кращий дебют року.
Взимку рок-радіо «Джем –Фм» за результатами опитувань визнає гурт АнтитілА кращим дебютом року, нагороджує премією «Непопса!» та вручає бронзову статуетку, вилиту у формі штекера до резетки! А відомий радіо-ведучий Олександр Стасов залучає команду до низки «непопсових» концертів.
Тур «М-TV»
Підтримуючи стрімкий старт гурту, телеканал «M-TV Україна» запрошує АнтитілА у всеукраїнський тур «Запуль зірку в Ліверпуль». Разом з гуртами «СКАЙ», «Бумбокс», «Друга ріка», «Quest Pistols», «Новий союз» АнтитілА подорожують Україною, даючи масштабні open-air концерти.
Мистецький олімп
На АнтитілА звертають увагу «корифеї естради» і вносять до щорічного друкованого альманаху «Мистецький олімп 2008 – 2009» за збереження українського мелосу в сучасній молодіжній культурі.
2009
European Music Awards 2009
Антитіла потрапляють у п'ятірку номінантів від України на премію EMA, телеканалу M-TV Europe.
Нові відео-кліпи
Не припиняючи творчий процес та концертну діяльність, АнтитілА знімають кілька відео-кліпів на пісні з першого альбому «Бери своє» а також на сингли з майбутньої платівки «Вибирай» та «Рожеві діви». Кліпи потрапляють до ефірів музичних телеканалів і стрімко набирають популярності в інтернеті та соц-мережах. Саме тоді хлопці знайомляться з режисером кліпів Олександром Ковтуном, з яким у майбутньому започаткується масштабний проект «Невидимка».
2010
Відхід від «Catapult-music»
Влітку АнтитілА, за згодою всіх сторін, припиняють співробітництво з компанією «Catapult Music», а також з менеджером, та, на той час виконавчим продюсером Оленою Красько. Музиканти, і вже «минулий» прод-центр розходяться, залишаючись друзями, і продовжують свій розвиток кожен окремо. Подальший менеджмент групи відповідально бере на себе клавішник та аранжувальник Антитіл - Сергій Вусик.
Європа, «Sziget».
В один із спекотних липневих днів дзвінок Андрія Уреньова, на той час головного продюсера телеканалу M-TV, вперше відкрив Антитілам Європу, чи то пак Європі – АнтитілА. Андрій повідомив, що хлопці за результатами всеукраїнського голосування обрані представляти Україну на наймасштабнішому фестивалі центральної Європи – «Sziget». На острові Sziget у Будапешті, куди вирушили з концертом АнтитілА, щороку збирається понад 700 000 меломанів з усієї Європи. Гурт виступив хедлайнером MTV-Stage у п’ятий день фестивалю.
Нове відео
З появою нових пісень АнтитілА знімають і «свіжі» відео. Восени, за підтримки компанії Ігора Захарченка «Феєрія мандрів», гурт відлітає до Тель-Авіву. Результатом поїздки стає кліп на пісню «Біла ворона».
Зимовий тур
Взимку гурт вирушає в перший клубний тур містами України. Від Донецька до Львова, від Чернігова до Сімферополя. Всюди Антитіл зустрічають вдячні прихильники і підспівують вже добре завчені «я буду буду шаманом вуду вуду…»
2011
«Прятки»
Кілька пісень гурту стають саундтреками до російського фільму «Прятки». А самі музиканти знімаються у фільмі в ролі… самих себе – гурту АнтитілАJ, відриваючись на камеру під «будувуду»!
Новий драмер
АнтитілА залишає барабанщик Олексій Скурідін, натомість до гурту приєднується новий з найдовшою бородою в Україні – Ерланд Сиволапов. Тепер у команді стає два Сиволапи. Максим Сиволап – старожил Антитіл, аранжувальник і незмінний учасник групи, та Ерланд Сиволапов – новий барабанщик!
«F1H2O»
Влітку в Українї відбувається грандіозна подія – етап світового чемпіонату перегонів «Формули –1» на воді «F1H2O». Київське водосховище стає місцем надводних баталій. Організатори змагань звертаються до гурту з пропозицією виступити перед гостями і також написати офіційний гімн українського етапу перегонів. АнтитілА з радістю погоджуються! Так з’являється пісня «F1H2O», а згодом і відео-кліп.
Другий льбом
Восени АнтитілА закінчують роботу над другим альбомом, що отримує назву «Вибирай».
І, на численні прохання фанів, гучно презентують його в Києві живим виступом в концерт-холі «Crystal-Hall». А потім вони вирушають у промо-тур містами України. Цього разу до платівки входить 11 треків і 3 бонуси, серед яких російськомовна композиція «Смотри в меня». Концепція диску вирізняється соціальним спрямуванням і важчим саундом. А у піснях, окрім любовної лірики, АнтитілА зачіпають гострі суспільно-соціальні теми.
2012
Наше радио
Перший російськомовний сингл Антитіл «Смотри в меня» потрапляє до відомого рокового російського хіт-параду «Чартова дюжина» радіостанції «Наше радио» і три місяці поспіль тримається в «топах»! Критики зауважують, що вперше за тривалий час молода українська група, дебютуючи, одразу підкорює вибагливого російського слухача. Дехто з українських фанів починає докоряти групі наявністю російської пісні в репертуарі і навіює хлопцям сумніви щодо правильності зробленого кроку. Але коли у Львові переповнений вщерть зал під час сольного концерту починає вимагати хором «Смотри в меня», всі сумніви хлопців розівюються! Стає напевно зрозуміло, що чесна музика – аполітична!
Придувалов
Культовий режисер Віктор Придувалов після тривалої творчої паузи знімає Антитілам відео на пісню «Смотри в меня», де вперше виступає в головній ролі свого ж кліпу! Відео-кліп одразу потрапляє на численні музичні канали. Фани говорять про якісно-новий етап у розвитку групи.
Ада Роговцева
Пісня Антитіл «А я відкривав тебе» стає саундтреком до короткометражного фільму «Собачий вальс» з Адою Роговцевою в головній ролі. Фільм входить до кіно-альманаху «Закохані в Київ». Також з’являється відео-кліп.
Літній хіт
Відчувши на собі ранню теплу весну, лідер гурту Тарас Тополя разом з аранжувальником Максимом Сиволапом пишуть пісню «І всю ніч». Кілька тижнів – і вона вже звучить в ефірі майже всіх радіо-станцій України. АнтитілА, не гаючи часу, знімають відео-кліп. Пісня стає головним українським хітом літа 2012.
Open-air тур 2012. Заміна барабанщика та фючерінг з “Табула-Раса”
Восени команда вирушає у масштабний open-air тур, у підтримку відомого світового боксера, а на той момент вже й сильного політика – Віталія Кличка! Більше двох десятків концертів від сходу до заходу, де АнтитілА виступають хедлайнерами, супроводжуючи Віталія!
Під час туру, неочікувано для Антитіл, і досить очікувано як для Дніпропетровська, що давно став великим культурним центром відбувається зустріч з Денисом Швецем, драмером декількох Дніпропетровських гуртів, а також культової команди "И друг мой грузовик"! Зустріч спричинила цікавий розвиток подій і вже через декілька тижнів Ерланд Сиволапов залишає АнтитілА віддаючись на повну важкій музиці, а йому на зміну за барабани сідає Денис Швець! Потужний драйв і грув, вегетаріанство, дреди і добра посмішка - це лише невелика частина того, що додає в колектив новий драмер!
Приймаючи активну участь у суспільному житті країни, АнтитілА звичайно ж не перестають творити. Так з'являється спільна з гуртом “Табула-Раса” пісня “Полінезійська зима”, а згодом і відео-кліп на неї! Об'єднання сучасних Антитіл з, можна сказати легендами українського поп-року, гуртом “Табула–Раса” дає прекрасний творчий результат, і вже згодом пісня лунає з ефірів багатьох радіо-станцій, а кліп беруть в ефір більшість музичних телеканалів.
2013
Москва, кліп “Тебе моя невеста”
АнтитілА, по запрошенню відомого продюсера Леоніда Бурлакова (Земфіра, Мумій Тролль) вирушають в Росію із сольним концертом у легендарному клубі “16 тонн”! Заповнений зал підспівує українською, що приємно дивує команду і надихає на написання нових пісень! Після повернення, АнтитілА одразу презентують сингл “Тебе моя невеста” і показують не просто кліп, а справжній екшн! Відео одразу збирає масу вражених відгуків та сотні тисяч переглядів на Youtube!
Тур “МОВА”
Лютий - травень 2013-го, за доброю традицією, ознаменувались великим зимово-весняним клубним туром, що отримав назву “МОВА”. У це слово АнтитілА вклали все те найкраще, що об'єднує людей, дає їм змогу і силу виражати себе! Це були двадцять п'ять міст і містечок, тисячі людей, посмішок і звичайно ж чесна жива музика! Головною особливістю туру, окрім нових пісень і особливої енергетики, стала його титульна пісня, що отримала однойменну назву “МОВА”! В кожному місті і селищі, де АнтитілА дають концерт, на цю пісню, безпосередньо під час виступу здійснюється зйомка відео-матеріалу. З якого, щойно відігравши фінальний концерт у вщерть заповненому клубі “Толстой”, клавішник і аранжувальник гурту Сергій Вусик монтує відео-кліп - справжнє концертне відео, в якому у головній ролі – прихильники групи! Не обходиться і без режисерської версії відео-кліпу. Вона весною 2013 захоплює теле ефіри на радість режисеру відео - Олексію Веренчику, Антитілам і звичайно ж всім прихильникам!
Подяки:
vamp69 за зроблені ріпи з власних CD альбомів "Все красиво (2015)" та "Special CD (2013)"
Volovik за зроблений ріп з власного CD альбому "Сонце (2016)"


Якщо Ви справді бажаєте підтримати українське - після прослуховування, якщо музика вам сподобалась, придбайте ліцензійний диск. Підтримаймо вітчизняних виконавців!


Золотий реліз (завантажене не впливає на рейтинг)
 Трекер:    Зареєстрований   

Завантажити / скачати українську музику



відео для новачків



 Зареєстрований:   2017-03-31 17:10
 Розмір:   2.42 GB 
 Оцінка музики:   7.9/10 (Голосів: 51)
   
Oleksa9 
Поважний учасник


З нами з: 17.05.12
Востаннє: 26.09.17
Повідомлень: 242

2014-01-14 23:03  
Микита, а не Нікита. Виправте, будь ласка.
ninenine 
Відео Гуртом - фільмокрай
Відео Гуртом - фільмокрай


З нами з: 23.10.09
Востаннє: 26.09.17
Повідомлень: 1151

2014-01-14 23:54  
Oleksa9 написано:
Микита, а не Нікита. Виправте, будь ласка.

Який Микита, імена не перекладаються, і до того ж я дивився на багатьох сайтах, всюди пише Нікіта Чухрієнко, так що все правильно. Tongue out (1)

ivan vyrvyvuho 
VIP


З нами з: 19.08.12
Востаннє: 22.09.17
Повідомлень: 945

2014-01-15 00:10  
Над Полюсами (2013) ще не маю, завантажу, але в Мп3. Будувуду я собі слухатииии!
Ні. Все ж таки тут. Звук має бути кращим.

Oleksa9 
Поважний учасник


З нами з: 17.05.12
Востаннє: 26.09.17
Повідомлень: 242

2014-01-15 07:36  
Про переклад мова не йде, просто в українській немає а ні Нікити, а ні Нікіти, є Микита
24el 
Новенький


З нами з: 31.01.15
Востаннє: 14.02.15
Повідомлень: 2

2015-01-31 21:08  
Встаньте кто-то на раздачу, пожалуйста.
Целый день не могу скачать...

kolpavel 
VIP


З нами з: 04.05.14
Востаннє: 26.09.17
Повідомлень: 1169

2015-05-23 01:06  
Нiкiта - ім'я власне. I Джон теж буде українською - Джон, а не Iван.
P.S. Культурнєє, культурнєє будьласка. Однi фiлологи та лiнгвiсти ... .

Oleksa9 
Поважний учасник


З нами з: 17.05.12
Востаннє: 26.09.17
Повідомлень: 242

2015-05-23 06:34  
kolpavel написано:
Культурнєє, культурнєє будьласка


новітні норми української літературної та орфографії, якою тут правилами дозволено спілкуватись?

Навіщо писати правила і вперто їх кожного разу порушувати? Це шлях не до Європи, а до "азійської дикої далечі". Писати одне, думати інше і робити щось зовсім інакше....

jasper_rayn 
Новенький


З нами з: 29.09.14
Востаннє: 20.03.16
Повідомлень: 4

2015-05-24 23:03  
Вибачте. А в когось є цей альбом з іншими бонусами? Як на айтюнсі?
ninenine 
Відео Гуртом - фільмокрай
Відео Гуртом - фільмокрай


З нами з: 23.10.09
Востаннє: 26.09.17
Повідомлень: 1151

2015-07-11 14:24  
Торент файл перезалито, додано альбом "Все красиво (2015)", прохання перекачати торент.
vamp69 
Поважний учасник


З нами з: 06.07.09
Востаннє: 26.09.17
Повідомлень: 173

2015-08-20 17:24  
ninenine можу для повної колекції ще поділитися таким СД
+


ninenine 
Відео Гуртом - фільмокрай
Відео Гуртом - фільмокрай


З нами з: 23.10.09
Востаннє: 26.09.17
Повідомлень: 1151

2015-08-21 09:28  
vamp69 написано:
ninenine можу для повної колекції ще поділитися таким СД


vamp69 поділися будь ласка, наперед вдячний.

ninenine 
Відео Гуртом - фільмокрай
Відео Гуртом - фільмокрай


З нами з: 23.10.09
Востаннє: 26.09.17
Повідомлень: 1151

2015-09-06 12:41  
Торент файл перезалито, додано альбом "Special CD (2013)", прохання перекачати торент.
akon111 
Відео Гуртом - запис з ТБ
Відео Гуртом - запис з ТБ


З нами з: 28.08.09
Востаннє: 26.09.17
Повідомлень: 1221

2015-09-09 09:24  
все таки має Нікіта бути.. релізер правильно говорить імена не перекладаються. бо всюди зазначено Нікіта а не Микита. от в мене знайомий є його звати Нікіта і в паспорті він Нікіта. пан модератор неправий щодо релізера зі своїм баном
Oleksa9 
Поважний учасник


З нами з: 17.05.12
Востаннє: 26.09.17
Повідомлень: 242

2015-09-09 09:52  
akon111 написано:
в паспорті він Нікіта


У паспорті можуть написати що завгодно.

akon111 написано:
пан модератор неправий


він не лівий

akon111 
Відео Гуртом - запис з ТБ
Відео Гуртом - запис з ТБ


З нами з: 28.08.09
Востаннє: 26.09.17
Повідомлень: 1221

2015-09-09 10:46  
Oleksa9 написано:
він не лівий

не домахуйся до слів

Додано через 56 секунд:

Oleksa9 написано:
У паспорті можуть написати що завгодно.

а якщо батьки так назвали?

от прикинь мене би назвали Джоном батьки і так хрестили. то що мене мають кликати Іваном?

пане модератор тут коменти нідо чого а тупий спор з тими іменами...і тут треба тему почистити від цих коментів....українську добре мало хто знає і не треба тут мудрувати

Додано через 4 хвилини 31 секунду:

Oleksa9 написано:
Про переклад мова не йде, просто в українській немає а ні Нікити, а ні Нікіти, є Микита


сестра моя сина Еріком назвала...от тепер переклади ім'я
Ерік такого імені у нашій мові нема

ssTAss 
Модератор музики


З нами з: 05.07.08
Востаннє: 27.09.17
Повідомлень: 12014

2015-09-09 21:04  
akon111 написано:
пан модератор неправий щодо релізера зі своїм баном

ніхто релізера не банив
ім'я в релізі не змінював (хоч теж вважаю, що має бути Микита http://photo.unian.net/ukr/detail/477469.html )
ще питання?

Boyavor 
Свій


З нами з: 03.10.12
Востаннє: 03.08.17
Повідомлень: 67

2015-09-09 22:36  
На офіційному сайті Нікита, Вікіпедія говорить Микита, але вам не все одно?! Слухайте і насолоджуйтеся!
Oleksa9 
Поважний учасник


З нами з: 17.05.12
Востаннє: 26.09.17
Повідомлень: 242

2015-09-10 06:30  
Boyavor написано:
не все одно?!

Звісно, "какаяразніца", кому та українська здалася, суржик добре, а ворожа ще краще.... це такий ворог хохла №1, та українська мова....

akon111 
Відео Гуртом - запис з ТБ
Відео Гуртом - запис з ТБ


З нами з: 28.08.09
Востаннє: 26.09.17
Повідомлень: 1221

2015-09-13 23:10  
Oleksa9 написано:
Звісно, "какаяразніца", кому та українська здалася, суржик добре, а ворожа ще краще.... це такий ворог хохла №1, та українська мова....

це ти не в тему тринданув..справа в тому що імена не перекладаються і все...такі правила

ninenine 
Відео Гуртом - фільмокрай
Відео Гуртом - фільмокрай


З нами з: 23.10.09
Востаннє: 26.09.17
Повідомлень: 1151

2017-03-31 17:12  
Торент файл перезалито, додано альбом "Сонце (2016)", прохання перекачати торент.
Volovik 
VIP


З нами з: 21.02.10
Востаннє: 26.09.17
Повідомлень: 370

2017-04-02 08:03  
Роздайте, будь ласка!
alekxua 
Новенький


З нами з: 16.01.17
Востаннє: 20.09.17
Повідомлень: 3

2017-07-12 12:04  
Кілька зауважень щодо імен власних.

Євген - Евгений
Олександр - Александр
Кирило - Кирилл
Львів - Львов
Відень - Вена
Київ - Киев


Прикладів - безліч. Тож бачимо, що в будь-якій мові, навіть імена власні таки трансформуються за
правилами цієї мови.
Інша річ, якщо сам носій імені бажає для себе саме такої транскрипції. Це особисте і, як на мене, в
цьому немає жодного криміналу.
Набагато гірше, якщо це наслідки непрофісійної роботи редакторів.
Щодо іноземних імен, що в оригіналі пишуться латиною, ієрогліфами,арабською і т.і. Ми пишемо і
промовляємо ці імена та назви так, як самі чуємо та здатні вимовити. І записати відповідно до правил
нашої мови. Навіть такі, на наш погляд, прості імена як JOHN, PAUL, GEORGE та RINGO, насправді
більшість промовляє з акцентом (добре помітним самим британцям). Але ж це нормально.
Перепрошую, я не хотів би, щоб хтось сприйняв цей пост як якесь зверхнє повчання.

Ваш часовий пояс: GMT + 2 Години

Нова тема   Відповісти