Корпорація монстрів / Monsters, Inc. (2001) 720p-mini

Нові коментарі

Нова тема   Відповісти
Автор Повідомлення
Drool 
VIP


З нами з: 17.04.10
Востаннє: 18.08.17
Повідомлень: 1368

2014-01-14 19:27  
Корпорація монстрів / Monsters, Inc. (2001) 720p-mini

Жанр: анімація, комедія, сімейний, фантастика
Країна: США



Кінокомпанія: Walt Disney Pictures / Pixar Animation Studios
Режисер: Піт Доктер, Девід Сілверман, Лі Анкріч
Актори: Джон Ґудмен, Біллі Крістал, Мері Ґиббс, Стів Бушемі, Джеймс Коберн, Дженніфер Тіллі, Боб Пітерсон, Джон Ратценберґер, Френк Оз, Ден Джерсон

Сюжет:
Вони монстри, проте не такі вже й страшні, а деякі навіть милі. Живуть вони в паралельному до нашого світу місті Монстрополісі. Їхня робота – лякати дітей, адже саме дитячі крики виробляють енергію, потрібну для життєдіяльності міста.
Звісно, контакти з дітьми суворо заборонені, але найкращий з монстрів Саллі порушує рівновагу – він зустрічає гарну маленьку дівчинку...


Тривалість: 01:32:15
Якість: 720p-mini (джерело: Remux 1080p)
Відео:
кодек:
розмір кадру: 1280х692
бітрейт: 2970 кб/с

Аудіо:
мова: українська
переклад: професійний дубльований
кодек: 5.1
бітрейт: 448 кб/с
Джерело озвучення:
Невідоме. Звукова доріжка була присутня на Remux-і, і, судячи з усього, отримана шляхом накладення двоканальної української на оригінальну 5.1.
Імовірно, роботу було виконано , які є авторами вихідного Remux.
Info
General
Unique ID : 156702886781412523546491308171003339788 (0x75E3E0D1DFC48DF890022CBAE80EA40C)
Complete name : /mnt/router/Torrents/Monsters,Inc.2001.Ukr.Dub..720p-mini.UAGet.
Format :
File size : 2.21 GiB
Duration : 1h 32mn
Overall bit rate : 3 422 Kbps
Writing application : HandBrake rev0
Writing library : libmkv 0.6.5

Video
ID : 1
Format : AVC
Format/Info : Advanced Video Codec
Format profile : [email protected]
Format settings, CABAC : Yes
Format settings, ReFrames : 7 frames
Codec ID : V_MPEG4/ISO/AVC
Duration : 1h 32mn
Bit rate : 2 970 Kbps
Width : 1 280 pixels
Height : 692 pixels
Display aspect ratio : 1.850
Frame rate : 23.976 fps
Color space : YUV
Chroma subsampling : 4:2:0
Bit depth : 8 bits
Scan type : Progressive
Bits/(Pixel*Frame) : 0.140
Stream size : 1.87 GiB (85%)
Writing library : core 135 r2345 f0c1c53
Encoding settings : cabac=1 / ref=8 / deblock=1:-3:-3 / analyse=0x3:0x133 / me=umh / subme=9 / psy=1 / psy_rd=1,00:0,00 / mixed_ref=1 / me_range=32 / chroma_me=1 / trellis=2 / 8x8dct=1 / cqm=0 / deadzone=21,11 / fast_pskip=0 / chroma_qp_offset=-2 / threads=6 / lookahead_threads=1 / sliced_threads=0 / nr=0 / decimate=1 / interlaced=0 / bluray_compat=0 / constrained_intra=0 / bframes=8 / b_pyramid=1 / b_adapt=2 / b_bias=0 / direct=3 / weightb=1 / open_gop=0 / weightp=2 / keyint=240 / keyint_min=24 / scenecut=40 / intra_refresh=0 / rc=2pass / mbtree=0 / bitrate=2970 / ratetol=1,0 / qcomp=1,00 / qpmin=0 / qpmax=69 / qpstep=4 / cplxblur=20,0 / qblur=0,5 / ip_ratio=1,40 / pb_ratio=1,30 / aq=0
Language : English
Color primaries : BT.709-5, BT.1361, IEC 61966-2-4, SMPTE RP177
Transfer characteristics : BT.709-5, BT.1361
Matrix coefficients : BT.709-5, BT.1361, IEC 61966-2-4 709, SMPTE RP177

Audio
ID : 2
Format : AC-3
Format/Info : Audio Coding 3
Mode extension : CM (complete main)
Codec ID : A_AC3
Duration : 1h 32mn
Bit rate mode : Constant
Bit rate : 448 Kbps
Channel(s) : 6 channels
Channel positions : Front: L C R, Side: L R, LFE
Sampling rate : 48.0 KHz
Bit depth : 16 bits
Compression mode : Lossy
Stream size : 296 MiB (13%)
Language : Ukrainian
Скріншоти




Реліз від:
Особиста оцінка: 10 - без зайвих вагань рекомендую всім!


Срібний реліз (на рейтинг впливає 50% завантаженого)
 Трекер:    Зареєстрований   

Завантажити / скачати мультфільм українською



відео для новачків



 Зареєстрований:   2014-01-14 19:27
 Розмір:   2.21 GB 
 Оцінка мультфільму:   9.9/10 (Голосів: 29)
   
Ваш часовий пояс: GMT + 2 Години

Нова тема   Відповісти