Діви Розена: Перезаведення (сезон 3) / Rozen Maiden: Zurückspulen (season 3) (2013) Jap | sub Ukr

Нові коментарі

Нова тема   Відповісти
Останній раз роздавалося bills_spirit (2017-08-22)
Автор Повідомлення
animeguy 
Новенький


З нами з: 04.09.13
Востаннє: 20.08.17
Повідомлень: 21

2014-01-13 20:45  
Діви Розена: Перезаведення (сезон 3) / Rozen Maiden: Zurückspulen (season 3) (2013) Jap | sub Ukr

Діви Розена: Перезаведення (сезон 3) / Rozen Maiden: Zurückspulen (season 3) (2013) Jap | sub Ukr


Жанр: анімація, містика, комедія
Країна: Японія



Студія: Studio DEEN
Режисер: Мамору Хатакеяма
Сейю: Рьота Оосака, Асамі Санада, Нацумі Такаморі, Міюкі Савашіро, Ріе Танака, Нацуко Куватані, Ріка Морінаґа, Сакура Ноґава, Юмі Шімурі, Чіемі Чіба

Сюжет:
Шість ляльок майстра Розена б’ються одна з одною. Кожна з них хоче стати ідеальною дівою зі мрій свого Батька – Алісою. Сили вони беруть у людей-медіумів, з якими складають контракт. Таким медіумом є і головний герой – Джюн Сакурада, слуга Шінку.
Однак остання, сьома лялька Кіракісьо заманює своїх сестер до пастки, з якої неможливо вибратись. Тому Шінку приймає несподіване рішення.
Хто визволить ляльок? Які між ними склалися стосунки? Чи потрібна ця битва Кіракісьо?


Тривалість: 13 серій по 00:24:12
Якість:
Відео:
кодек:
розмір кадру: 1280x720
бітрейт: 3 028 кб/с

Аудіо:
мова: японська
переклад: оригінал
кодек: OGG
бітрейт: 256 кб/с

Субтитри:
мова: українська
тип: програмні (м'які)
формат: *.ass

Список серій

01. Alice Game/Гра Аліси
02. Shoujo no Tsukuri Kata/Як створити дівчинку
03. Shinku no Mezame/Пробудження Шінку
04. Teapot/Заварник
05. Tenshi no Kuroi Hane/Чорні крила янгола
06. Kagen no Tsuki made/Доки місяць не почне старіти
07. Sonzai Shita Jikan/Наше існування
08. Antique Doll/Старовинна лялька
09. Gen'ei no Shirobara/Біла троянда-примара
10. Mienai Sentakushi/Найменший наш вибір
11. Yakusoku to Uso/Обіцянка і обман
12. Rosa Mystica/Роза Містика
13. Wasurenaide/Не забудь

Звіт Info

General
Unique ID : 190879730821343759489657117994586967884 (0x8F9A1953E7B42AD7A983A90EAC438F4C)
Complete name : Z:\роздаю\[Anime Guy] Rozen Maiden (2013) [BD] [720p] [UKR]\[Anime Guy] Rozen Maiden (2013) - 01 [BD] [720p] [UKR].
Format :
Format version : Version 4 / Version 2
File size : 581 MiB
Duration : 24mn 12s
Overall bit rate mode : Variable
Overall bit rate : 3 354 Kbps
Encoded date : UTC 2013-12-10 12:50:34
Writing application : mkvmerge v6.6.0 ('The Edge Of The In Between') built on Dec 1 2013 17:55:00
Writing library : libebml v1.3.0 + libmatroska v1.4.1
Attachment : Yes / Yes / Yes / Yes

Video
ID : 1
Format : AVC
Format/Info : Advanced Video Codec
Format profile : High [email protected]
Format settings, CABAC : Yes
Format settings, ReFrames : 9 frames
Codec ID : V_MPEG4/ISO/AVC
Duration : 24mn 12s
Bit rate : 3 031 Kbps
Width : 1 280 pixels
Height : 720 pixels
Display aspect ratio : 16:9
Frame rate mode : Constant
Frame rate : 23.976 fps
Color space : YUV
Chroma subsampling : 4:2:0
Bit depth : 10 bits
Scan type : Progressive
Bits/(Pixel*Frame) : 0.137
Stream size : 525 MiB (90%)
Writing library : core 132 r2309 3b1f1f7
Encoding settings : cabac=1 / ref=9 / deblock=1:-2:-2 / analyse=0x3:0x133 / me=umh / subme=9 / psy=1 / psy_rd=0.90:0.00 / mixed_ref=1 / me_range=24 / chroma_me=1 / trellis=2 / 8x8dct=1 / cqm=0 / deadzone=21,11 / fast_pskip=1 / chroma_qp_offset=-2 / threads=6 / lookahead_threads=1 / sliced_threads=0 / nr=0 / decimate=0 / interlaced=0 / bluray_compat=0 / constrained_intra=0 / bframes=8 / b_pyramid=2 / b_adapt=2 / b_bias=0 / direct=1 / weightb=1 / open_gop=0 / weightp=2 / keyint=250 / keyint_min=23 / scenecut=40 / intra_refresh=0 / rc=crf / mbtree=0 / crf=15.7 / qcomp=0.70 / qpmin=9 / qpmax=40 / qpstep=4 / ip_ratio=1.40 / pb_ratio=1.30 / aq=1:0.90
Default : No
Forced : No

Audio
ID : 2
Format : Vorbis
Format settings, Floor : 1
Codec ID : A_VORBIS
Duration : 24mn 12s
Bit rate mode : Variable
Bit rate : 256 Kbps
Channel(s) : 2 channels
Sampling rate : 48.0 KHz
Compression mode : Lossy
Stream size : 44.3 MiB (8%)
Writing library : libVorbis (Schaufenugget) (20101101 (Schaufenugget))
Language : Japanese
Default : Yes
Forced : No

Text
ID : 3
Format : ASS
Codec ID : S_TEXT/ASS
Codec ID/Info : Advanced Sub Station Alpha
Compression mode : Lossless
Title : [Anime Guy] Rozen Maiden (2013) - 01 [BD] [720p] [UKR]
Language : Ukrainian
Default : Yes
Forced : No
Скриншоти






Джерело: Інше
Особиста оцінка: 7 – можна було й краще


Золотий реліз (завантажене не впливає на рейтинг)
 Трекер:    Зареєстрований   

Завантажити / скачати аніме українською



відео для новачків



 Зареєстрований:   2014-08-23 15:18
 Розмір:   7.55 GB 
 Оцінка аніме:   9.7/10 (Голосів: 3)
   
ImfromUkraine 
VIP


З нами з: 18.02.12
Востаннє: 21.08.17
Повідомлень: 289

2014-01-15 04:03  
мм... а 2-ий сезон десь є/буде?
animeguy 
Новенький


З нами з: 04.09.13
Востаннє: 20.08.17
Повідомлень: 21

2014-01-15 13:21  
Цитата:
мм... а 2-ий сезон десь є/буде?

До кінця першого півріччя точно не буде. А тоді - можливо.

ImfromUkraine 
VIP


З нами з: 18.02.12
Востаннє: 21.08.17
Повідомлень: 289

2014-01-16 21:35  
мм, шкода)
animeguy 
Новенький


З нами з: 04.09.13
Востаннє: 20.08.17
Повідомлень: 21

2014-02-03 00:15  
Додано 3 серію! Перекачайте торрент.
Четверту чекайте через тиждень.

animeguy 
Новенький


З нами з: 04.09.13
Востаннє: 20.08.17
Повідомлень: 21

2014-02-20 00:09  
Додано 4 серію. Завантажте оновлений торрент.
animeguy 
Новенький


З нами з: 04.09.13
Востаннє: 20.08.17
Повідомлень: 21

2014-03-10 16:34  
Додано п'яту серію.
animeguy 
Новенький


З нами з: 04.09.13
Востаннє: 20.08.17
Повідомлень: 21

2014-07-18 19:58  
Додано шосту серію.

Додано через 13 хвилин 28 секунд:

І в додачу - другого сезону не буде. У всякому разі, зі мною в якості перекладача.

Gedet 
Відео Гуртом - субтитрування
Відео Гуртом - субтитрування


З нами з: 17.11.11
Востаннє: 17.05.17
Повідомлень: 1798

2014-07-18 23:21  
Переклав одне аніме й зник...
NeetScrool 
Відео Гуртом - фільмокрай
Відео Гуртом - фільмокрай


З нами з: 10.01.13
Востаннє: 21.08.17
Повідомлень: 2613

2014-07-19 00:11  
Gedet
Шукай його в клубі в скайпі

animeguy 
Новенький


З нами з: 04.09.13
Востаннє: 20.08.17
Повідомлень: 21

2014-07-19 11:30  
Gedet
Нікуди я не зникав. Скайп можеш спитати у Sensetivity.

animeguy 
Новенький


З нами з: 04.09.13
Востаннє: 20.08.17
Повідомлень: 21

2014-07-23 17:35  
Додано сьому серію.
animeguy 
Новенький


З нами з: 04.09.13
Востаннє: 20.08.17
Повідомлень: 21

2014-07-30 11:47  
Додано восьму серію.
animeguy 
Новенький


З нами з: 04.09.13
Востаннє: 20.08.17
Повідомлень: 21

2014-08-04 12:23  
Додано дев'яту серію.
animeguy 
Новенький


З нами з: 04.09.13
Востаннє: 20.08.17
Повідомлень: 21

2014-08-12 18:50  
Додано десяту серію.
Konfucius 
Управління
Управління


З нами з: 30.09.07
Востаннє: 21.08.17
Повідомлень: 4942

2014-08-13 22:47  
Бракує переліку серій.
bot 
робот


З нами з: 30.09.07
Востаннє: 26.05.05
Повідомлень: 17407

2014-08-18 13:04  
Тему перенесено з Неоформлене відео до форуму Аніме


Konfucius

animeguy 
Новенький


З нами з: 04.09.13
Востаннє: 20.08.17
Повідомлень: 21

2014-08-23 15:20  
Додано 12 і 13 серії.
Переклад завершено.

ImfromUkraine 
VIP


З нами з: 18.02.12
Востаннє: 21.08.17
Повідомлень: 289

2014-08-23 21:12  
чудово) візьметесь тепер за другий сезон?)
animeguy 
Новенький


З нами з: 04.09.13
Востаннє: 20.08.17
Повідомлень: 21

2014-08-30 20:53  
ImfromUkraine
На жаль, ні. Принаймні цього року.

ImfromUkraine 
VIP


З нами з: 18.02.12
Востаннє: 21.08.17
Повідомлень: 289

2014-09-01 01:29  
ясненько) що ж, чекатиму на другий, бо не можу подивитись третій, не бачивши другого) хоча, вони, можливо, не дуже то і пов'язані)
animeguy 
Новенький


З нами з: 04.09.13
Востаннє: 20.08.17
Повідомлень: 21

2014-09-01 12:52  
ImfromUkraine
Сезони 2 і 3 не пов'язані. Можете спокійно переглядати.

ImfromUkraine 
VIP


З нами з: 18.02.12
Востаннє: 21.08.17
Повідомлень: 289

2014-09-02 18:17  
animeguy
нє, почекаю))

Dark Hunter 
Свій


З нами з: 03.10.12
Востаннє: 14.08.17
Повідомлень: 94

2015-04-16 03:47  
ImfromUkraine
Третій сезон, ніби окрема історія. До першого і другого сезону ніяк не в'яжеться. Хіба що декілька моментів є, та їх розжовують доступно)

Twidunbr 
Новенький


З нами з: 15.08.14
Востаннє: 26.07.17
Повідомлень: 9

2015-05-24 02:51  
Нарешті настав час твого сабу.
Ваш часовий пояс: GMT + 2 Години

Нова тема   Відповісти