Нездоланний (Непереможний) / Invincible (2006) 1080p 2xUkr/Eng | Sub Ukr/Eng

Нові коментарі

Нова тема   Відповісти
Автор Повідомлення
taraskill1 
Відео Гуртом - фільмокрай
Відео Гуртом - фільмокрай


З нами з: 21.01.12
Востаннє: 21.09.20
Повідомлень: 1262

2014-01-10 18:56  
Нездоланний (Непереможний) / Invincible (2006) 1080p 2xUkr/Eng | Sub Ukr/Eng

Нездоланний (Непереможний) / Invincible (2006) 1080p 2xUkr/Eng | Sub Ukr/Eng


Жанр: драма, біографічний, спорт
Країна: США



Кінокомпанія: Walt Disney Pictures
Режисер: Еріксон Кор / Ericson Core
Актори: Марк Волберґ / Mark Wahlberg, Кірк Асеведо / Kirk Acevedo, Туррон Кофі Алейні, Ендрю Анінсман / Turron Kofi Alleyne, Елізабет Бенкс / Elizabeth Banks, Нікоє Бенкс / Nicoye Banks, Марк Бартосіч / Mark Bartosic та інші

Сюжет:
Втративши дружину і роботу викладача, 30-річний бармен Вінс Папалі вирішує втілити в життя свою давню мрію. Йому надається шанс взяти участь у конкурсі, влаштованому тренером професійної команди з американського футболу «Philadelphia Eagles» Діком Вермейлен, який запросив усіх охочих спробувати на місце одного з гравців. Стається диво і Папалі, який не грав до цього навіть в студентській команді, стає професійним спортсменом ...


Тривалість: 01:44:00
Якість: 1080p
Відео:
кодек:
розмір кадру: 1920x816 (2.37:1)
бітрейт: ~10008 кб/с

Аудіо # 1:
мова: українська
переклад: багатоголосий закадровий
кодек: 2.0
бітрейт: 192 кб/с
Інформація про озвучення
Фільм озвучено студією "LeDoyen"
Режисер: Павло Голов
Перекладач: Ірина Андрієнко
Звукорежисер: Станіслав Ногін
Звукорежисер перезапису: Віктор Алферов
Актори озвучування: Олесь Гімбаржевський, Юрій Кудрявець, Дмитро Бузинський, Наталя Задніпровська, Андрій Соболєв, Олег Лепенець
Аудіо # 2:
мова: українська
переклад: багатоголосий закадровий
кодек: 2.0
бітрейт: 192 кб/с

Аудіо # 3:
мова: англійська
переклад: оригінал
кодек: 5.1
бітрейт: 640 кб/с

Субтитри # 1:
мова: українська
тип: програмні (м'які)
формат: *.srt

Субтитри # 2:
мова: англійська
тип: програмні (м'які)
формат: *.srt
Info
Код:
General
Unique ID                   : 313797564453273812892593047206422418862 (0xEC13366C031B372495703CDA66C895AE)
Complete name               : D:\Invincible (2006) 1080p [2xUkr,Eng] [Hurtom].
Format                      :
Format version              : Version 4
File size                   : 7.95 GiB
Duration                    : 1 h 44 min
Overall bit rate            : 10.9 Mb/s
Encoded date                : UTC 2020-04-29 07:46:52
Writing application         : v45.0.0 ('Heaven in Pennies') 64-bit
Writing library             : libebml v1.3.10 + v1.5.2

Video
ID                          : 1
Format                      : AVC
Format/Info                 : Advanced Video Codec
Format profile              : [email protected]
Format settings             : CABAC / 3 Ref Frames
Format settings, CABAC      : Yes
Format settings, Reference  : 3 frames
Codec ID                    : V_MPEG4/ISO/AVC
Duration                    : 1 h 44 min
Bit rate                    : 10.0 Mb/s
Width                       : 1 920 pixels
Height                      : 816 pixels
Display aspect ratio        : 2.35:1
Frame rate mode             : Constant
Frame rate                  : 23.976 (24000/1001) FPS
Color space                 : YUV
Chroma subsampling          : 4:2:0
Bit depth                   : 8 bits
Scan type                   : Progressive
Bits/(Pixel*Frame)          : 0.266
Stream size                 : 7.20 GiB (91%)
Writing library             : core 65 r999kMod cc51047
Encoding settings           : cabac=1 / ref=3 / deblock=1:0:0 / analyse=0x3:0x133 / me=umh / subme=6 / psy_rd=1.0:0.0 / mixed_ref=1 / me_range=16 / chroma_me=1 / trellis=1 / 8x8dct=1 / cqm=0 / deadzone=21,11 / chroma_qp_offset=-2 / threads=2 / thread_queue=2 / nr=0 / decimate=1 / mbaff=0 / bframes=3 / b_pyramid=1 / b_adapt=1 / b_bias=0 / direct=1 / wpredb=1 / keyint=250 / keyint_min=25 / scenecut=40(pre) / rc=abr / bitrate=10008 / ratetol=1.0 / qcomp=0.60 / qpmin=10 / qpmax=51 / qpstep=4 / ip_ratio=1.40 / pb_ratio=1.30 / aq=1:1.00
Default                     : Yes
Forced                      : No

Audio #1
ID                          : 2
Format                      : AC-3
Format/Info                 : Audio Coding 3
Commercial name             : Dolby Digital
Codec ID                    : A_AC3
Duration                    : 1 h 44 min
Bit rate mode               : Constant
Bit rate                    : 192 kb/s
Channel(s)                  : 2 channels
Channel layout              : L R
Sampling rate               : 48.0 kHz
Frame rate                  : 31.250 FPS (1536 SPF)
Bit depth                   : 16 bits
Compression mode            : Lossy
Stream size                 : 143 MiB (2%)
Title                       : Багатоголосий закадровий, "LeDoyen"
Language                    : Ukrainian
Service kind                : Complete Main
Default                     : Yes
Forced                      : Yes

Audio #2
ID                          : 3
Format                      : AC-3
Format/Info                 : Audio Coding 3
Commercial name             : Dolby Digital
Codec ID                    : A_AC3
Duration                    : 1 h 44 min
Bit rate mode               : Constant
Bit rate                    : 192 kb/s
Channel(s)                  : 2 channels
Channel layout              : L R
Sampling rate               : 48.0 kHz
Frame rate                  : 31.250 FPS (1536 SPF)
Bit depth                   : 16 bits
Compression mode            : Lossy
Stream size                 : 143 MiB (2%)
Title                       : Багатоголосий закадровий, "Новий канал"
Language                    : Ukrainian
Service kind                : Complete Main
Default                     : No
Forced                      : No

Audio #3
ID                          : 4
Format                      : AC-3
Format/Info                 : Audio Coding 3
Commercial name             : Dolby Digital
Codec ID                    : A_AC3
Duration                    : 1 h 44 min
Bit rate mode               : Constant
Bit rate                    : 640 kb/s
Channel(s)                  : 6 channels
Channel layout              : L R C LFE Ls Rs
Sampling rate               : 48.0 kHz
Frame rate                  : 31.250 FPS (1536 SPF)
Bit depth                   : 16 bits
Compression mode            : Lossy
Stream size                 : 476 MiB (6%)
Title                       : Оригінал
Language                    : English
Service kind                : Complete Main
Default                     : No
Forced                      : No

Text #1
ID                          : 5
Format                      : UTF-8
Codec ID                    : S_TEXT/UTF8
Codec ID/Info               : UTF-8 Plain Text
Duration                    : 1 h 37 min
Bit rate                    : 98 b/s
Count of elements           : 1335
Stream size                 : 70.8 KiB (0%)
Language                    : Ukrainian
Default                     : Yes
Forced                      : No

Text #2
ID                          : 6
Format                      : UTF-8
Codec ID                    : S_TEXT/UTF8
Codec ID/Info               : UTF-8 Plain Text
Duration                    : 1 h 37 min
Bit rate                    : 68 b/s
Count of elements           : 1570
Stream size                 : 48.8 KiB (0%)
Language                    : English
Default                     : No
Forced                      : No



Джерело:
Звукозапис з ТБ: Bohdan237, krigg070
Зведення звуку: drop_plz
Особиста оцінка: 8 - мені сподобалося


 Трекер:    Зареєстрований   

Завантажити / скачати фільм українською



відео для новачків



 Зареєстрований:   2020-04-29 11:20
 Розмір:   7.95 GB 
 Оцінка фільму:   6/10 (Голосів: 24)
   
Lil`Antoni 
VIP


З нами з: 25.02.12
Востаннє: 21.09.20
Повідомлень: 842

2017-01-08 17:41  
Класний фільм, давно дивився, хочу передивитися і в колекцію.
Щось не качає зовсім Sad (1) хоча є роздача Happy

Electroz 
Відео Гуртом - підтримка та поширення
Відео Гуртом - підтримка та поширення


З нами з: 18.09.14
Востаннє: 22.09.20
Повідомлень: 4013

2018-05-26 14:34  
До цього фільму є багатоголоска

demetrius52 
VIP


З нами з: 02.04.17
Востаннє: 03.05.20
Повідомлень: 264

2018-06-06 18:12  
Electroz написано:
До цього фільму є багатоголоска

що за студія?

Electroz 
Відео Гуртом - підтримка та поширення
Відео Гуртом - підтримка та поширення


З нами з: 18.09.14
Востаннє: 22.09.20
Повідомлень: 4013

2018-06-11 00:26  
demetrius52 написано:
що за студія?

LeDoyen

demetrius52 
VIP


З нами з: 02.04.17
Востаннє: 03.05.20
Повідомлень: 264

2018-06-11 08:54  
Electroz
а де можна знайти багатоголоску?

igor911 
Модератор відео


З нами з: 18.01.08
Востаннє: 22.09.20
Повідомлень: 14999

2018-09-20 16:17  
багатоголоска з Нового каналу https://toloka.to/t95193
bot 
робот


З нами з: 30.09.07
Востаннє: 26.05.05
Повідомлень: 25557

2020-04-29 11:26  
Тему перенесено з Фільми до форуму Фільми в HD


taraskill1

midasinc 
Новенький


З нами з: 24.01.15
Востаннє: 22.09.20
Повідомлень: 4

2020-05-09 22:58  
Класний фільм.
Ваш часовий пояс: GMT + 2 Години

Нова тема   Відповісти