Превеселий Новий рік з Вінні / Winnie the Pooh: A Very Merry Pooh Year (2002) 720p Ukr/Eng | Sub Multi

Нові коментарі

Нова тема   Відповісти
Автор Повідомлення
Drool 
VIP


З нами з: 17.04.10
Востаннє: 18.08.17
Повідомлень: 1369

2014-01-10 14:32  
Превеселий Новий рік з Вінні / Winnie the Pooh: A Very Merry Pooh Year (2002) 720p Ukr/Eng | Sub Multi

Жанр: анімація, сімейний
Країна: США



Кінокомпанія: Walt Disney Pictures
Режисер: Тед Хеннінг
Актори: Джим Каммінгс, Пітер Каллен, Джон Фідлер, Мікаел Гоух

Сюжет:
Вінні-Пух і його дружна компанія теж планують весело відсвяткувати Різдво. А це означає, що буде багато чудес, приємних сюрпризів і подарунків. А оскільки у Вінні, Іа, Тигри, Ру і П’ятачка ще жодне свято не обходилося без пригод, то й Різдво в чарівному лісі теж буде веселим!


Тривалість: 01:03:52
Якість: 720p
Відео:
кодек:
розмір кадру: 960x720
бітрейт: 4419 кб/с

Аудіо # 1:
мова: українська
переклад: професійний дубльований
кодек: 2.0
бітрейт: 192 кб/с

Аудіо # 2:
мова: англійська
переклад: оригінал
кодек: 2.0
бітрейт: 320 кб/с

Джерело озвучення:


Субтитри 1, 2, 3, 4:
мова: англійська, французька, словацька, іспанська (кастільська)
тип: програмні (м'які)
формат: *.srt
Info
General
Unique ID : 220999042642289612340941533008392810407 (0xA642DE0D4EF1CE295DB4021FF5DEEFA7)
Complete name : /mnt/disk/Video/Winnie.the.Pooh.A.Very.Merry.Pooh.Year.2002.Ukr.Dub..720p.
Format :
File size : 2.24 GiB
Duration : 1h 3mn
Overall bit rate : 5 031 Kbps
Movie name : Превеселий Новий рік з Вінні / Winnie the Pooh: A Very Merry Pooh Year (2002) 720p by Djex | Rip by DON
Encoded date : UTC 2014-01-10 08:47:59
Writing application : mkvmerge v4.8.0 ('I Got The...') сборка от Aug 22 2011 13:16:28
Writing library : libebml v1.2.0 + libmatroska v1.1.0

Video
ID : 1
Format : AVC
Format/Info : Advanced Video Codec
Format profile : [email protected]
Format settings, CABAC : Yes
Format settings, ReFrames : 12 frames
Codec ID : V_MPEG4/ISO/AVC
Duration : 1h 3mn
Bit rate : 4 419 Kbps
Width : 960 pixels
Height : 720 pixels
Display aspect ratio : 4:3
Frame rate : 23.976 fps
Color space : YUV
Chroma subsampling : 4:2:0
Bit depth : 8 bits
Scan type : Progressive
Bits/(Pixel*Frame) : 0.267
Stream size : 1.97 GiB (88%)
Title : Превеселий Новий рік з Вінні / Winnie the Pooh: A Very Merry Pooh Year (2002) 720p
Writing library : core 140 r2377 1ca7bb9
Encoding settings : cabac=1 / ref=12 / deblock=1:-2:-2 / analyse=0x3:0x133 / me=tesa / subme=10 / psy=1 / psy_rd=0.80:0.00 / mixed_ref=1 / me_range=24 / chroma_me=1 / trellis=2 / 8x8dct=1 / cqm=0 / deadzone=21,11 / fast_pskip=1 / chroma_qp_offset=-2 / threads=12 / lookahead_threads=2 / sliced_threads=0 / nr=0 / decimate=0 / interlaced=0 / bluray_compat=0 / constrained_intra=0 / bframes=8 / b_pyramid=2 / b_adapt=2 / b_bias=0 / direct=3 / weightb=1 / open_gop=0 / weightp=2 / keyint=250 / keyint_min=23 / scenecut=40 / intra_refresh=0 / rc_lookahead=60 / rc=crf / mbtree=0 / crf=15.0 / qcomp=0.75 / qpmin=0 / qpmax=69 / qpstep=4 / vbv_maxrate=62500 / vbv_bufsize=78125 / crf_max=0.0 / nal_hrd=none / filler=0 / ip_ratio=1.40 / pb_ratio=1.30 / aq=1:0.60 / zones=0,1240,crf=14.5/91633,91864,crf=14.5

Audio #1
ID : 2
Format : AC-3
Format/Info : Audio Coding 3
Mode extension : CM (complete main)
Codec ID : A_AC3
Duration : 1h 3mn
Bit rate mode : Constant
Bit rate : 192 Kbps
Channel(s) : 2 channels
Channel positions : Front: L R
Sampling rate : 48.0 KHz
Bit depth : 16 bits
Compression mode : Lossy
Stream size : 87.7 MiB (4%)
Title : Рідна мова (дубляж) телеканал ТЕТ [, 48000 Hz, stereo, s16, 192 kb/s]
Language : Ukrainian

Audio #2
ID : 3
Format : AC-3
Format/Info : Audio Coding 3
Format profile : Dolby Digital
Mode extension : CM (complete main)
Codec ID : A_AC3
Duration : 1h 3mn
Bit rate mode : Constant
Bit rate : 320 Kbps
Channel(s) : 2 channels
Channel positions : Front: L R
Sampling rate : 48.0 KHz
Bit depth : 16 bits
Compression mode : Lossy
Stream size : 146 MiB (6%)
Title : DD 2.0 @ 320 kbps |Оригінал|
Language : English

Text #1
ID : 4
Format : UTF-8
Codec ID : S_TEXT/UTF8
Codec ID/Info : UTF-8 Plain Text
Title : English
Language : English

Text #2
ID : 5
Format : UTF-8
Codec ID : S_TEXT/UTF8
Codec ID/Info : UTF-8 Plain Text
Title : French
Language : French

Text #3
ID : 6
Format : UTF-8
Codec ID : S_TEXT/UTF8
Codec ID/Info : UTF-8 Plain Text
Title : Slovak
Language : Slovak

Text #4
ID : 7
Format : UTF-8
Codec ID : S_TEXT/UTF8
Codec ID/Info : UTF-8 Plain Text
Title : Castilian
Language : Spanish

Menu
00:00:00.000 : en:Opening Credits/Pooh's Pals Have Arrived
00:06:35.270 : en:Christmas Wish List
00:09:06.713 : en:What About Pooh's Wish
00:16:37.163 : en:Santa Pooh
00:25:30.738 : en:The Perfect Marry Christmas
00:30:42.632 : en:Where's Piglet's Present
00:37:33.585 : en:Rabbit Gets Mad
00:46:10.059 : en:Trading Places
00:50:23.646 : en:Rabbit's Friends Are Back
00:57:53.970 : en:New Year's Eve/End Credits
Скріншоти




Джерело:
Особиста оцінка: 0 - не дивився


Срібний реліз (на рейтинг впливає 50% завантаженого)
 Трекер:    Зареєстрований   

Завантажити / скачати мультфільм українською



відео для новачків



 Зареєстрований:   2014-01-10 14:32
 Розмір:   2.24 GB 
 Оцінка мультфільму:   10/10 (Голосів: 6)
   
Ваш часовий пояс: GMT + 2 Години

Нова тема   Відповісти