"Олексфільм" в Амстердамі (2013) 1080р

Нові коментарі

Нова тема   Відповісти
Останній раз роздавалося ostap1980 (2016-04-19)
Автор Повідомлення
rumsasha 
Частий відвідувач


З нами з: 31.01.09
Востаннє: 13.10.17
Повідомлень: 32

2014-01-04 22:11  
"Олексфільм" в Амстердамі (2013) 1080р

"Олексфільм" в Амстердамі (2013) 1080р


Жанр: документальний
Країна: Україна

Режисер: Олексій Єкименко
Актори: Олександр Румянцев

Сюжет:
Восени 2013-го року творчий колектив кіностудії "Олексфільм" побував в Амстердамі. Принаймні, так вони самі заявили на своїй офіційній сторінці в соціальній мережі. Результат поїздки - перед Вами. З гумором, властивим хлопцям, цікавими моментами та краєвидами!
Увага: ролик НЕ Є рекламою.


Тривалість: 00:05:33
Якість: 1080р
Відео:
кодек:
розмір кадру: 1920х1080
бітрейт: 11,5 Мб/с

Аудіо:
мова: українська
переклад: оригінал
кодек: 2.0
бітрейт: 192 кб/с
Info
Код:
General
General
Format                                   : MPEG-4
Format profile                           : Base Media / Version 2
Codec ID                                 : mp42
File size                                : 466 MiB
Duration                                 : 5mn 33s
Overall bit rate                         : 11.7 Mbps
Encoded date                             : UTC 2013-10-24 11:43:14
Tagged date                              : UTC 2013-10-24 11:43:14

Video
ID                                       : 2
Format                                   : AVC
Format/Info                              : Advanced Video Codec
Format profile                           : [email protected]
Format settings, CABAC                   : Yes
Format settings, ReFrames                : 5 frames
Format settings, GOP                     : M=3, N=24
Codec ID                                 : avc1
Codec ID/Info                            : Advanced Video Coding
Duration                                 : 5mn 33s
Bit rate mode                            : Variable
Bit rate                                 : 11.5 Mbps
Width                                    : 1 920 pixels
Height                                   : 1 080 pixels
Display aspect ratio                     : 16:9
Frame rate mode                          : Constant
Frame rate                               : 29.970 fps
Standard                                 : NTSC
Color space                              : YUV
Chroma subsampling                       : 4:2:0
Bit depth                                : 8 bits
Scan type                                : Progressive
Bits/(Pixel*Frame)                       : 0.186
Stream size                              : 458 MiB (98%)
Language                                 : English
Encoded date                             : UTC 2013-10-24 11:43:14
Tagged date                              : UTC 2013-10-24 11:43:14

Audio
ID                                       : 1
Format                                   :
Format/Info                              : Advanced Audio Codec
Format profile                           : LC
Codec ID                                 : 40
Duration                                 : 5mn 32s
Bit rate mode                            : Constant
Bit rate                                 : 192 Kbps
Channel(s)                               : 2 channels
Channel positions                        : Front: L R
Sampling rate                            : 48.0 KHz
Compression mode                         : Lossy
Stream size                              : 7.63 MiB (2%)
Language                                 : English
Encoded date                             : UTC 2013-10-24 11:43:14
Tagged date                              : UTC 2013-10-24 11:43:14
Скріншоти








Джерело: Інше
Особиста оцінка: 10 - без зайвих вагань рекомендую всім!


 Трекер:    Зареєстрований   

Завантажити / скачати український фільм



відео для новачків



 Зареєстрований:   2014-01-04 22:11
 Розмір:   466 MB 
 Оцінка:   9.8/10 (Голосів: 4)
   
Ваш часовий пояс: GMT + 2 Години

Нова тема   Відповісти