Ріддік / Riddick (2013) ВDRip 720р 3хUkr/Eng | Sub Eng

Нові коментарі

Нова тема   Відповісти
Останній раз роздавалося [email protected] (2019-07-18)
Автор Повідомлення
Anonymous 







2013-12-27 23:21  
Ріддік / Riddick (2013) ВDRip 720р 3хUkr/Eng | Sub Eng

Ріддік / Riddick (2013) ВDRip 720р 3хUkr/Eng | Sub Eng


Жанр: екшн, фантастика, трилер
Країна: США, Велика Британія



Кінокомпанія: One Race Productions, Radar Pictures, Riddick Canada Productions
Режисер: Девід Туї / David Twohy
Актори: Він Дизель / Vin Diesel, Карл Урбан / Karl Urban, Йорді Молья / Jordi Mollà, Кеті Сакгоф / Katee Sackhoff, Дейв Батіста / Dave Batista, Букем Вудбейн / Bokeem Woodbine та інші

Сюжет:
Зраджений своїми і кинутий вмирати на пустельній планеті, Ріддік бореться з хижаками за життя і стає сильнішим і небезпечнішим ніж будь-коли. Галактичні найманці, що відкрили на нього полювання, виявляються тільки пішаками в грандіозному плані помсти. З ворогами, що виникають на його шляху тоді, коли це потрібно самому Ріддіку, він починає похід в ім'я помсти, щоб в кінці повернутися на рідну Фурію і врятувати її від знищення...


Тривалість: 01:58:40
Якість: 720p
Відео:
кодек:
розмір кадру: 1280 х 534
бітрейт: 5086 кб/с

Аудіо # 1:
мова: українська
переклад: професійний дубльований
кодек: 2.0
бітрейт: 192 кб/с

Аудіо # 2:
мова: українська
переклад: багатоголосий закадровий
кодек: 2.0 (стерео)
бітрейт: 195 кб/с

Аудіо # 3:
мова: українська
переклад: багатоголосий закадровий
кодек: 2.0
бітрейт: 195 кб/с

Аудіо # 4:
мова: англійська
переклад: оригінал
кодек: 5.1
бітрейт: 640 кб/с

Субтитри:
мова: англійська
тип: програмні (м'які)
формат: *.srt
Info

Video
ID : 1
Format : AVC
Format/Info : Advanced Video Codec
Format profile : [email protected]
Format settings : CABAC / 12 Ref Frames
Format settings, CABAC : Yes
Format settings, ReFrames : 12 frames
Codec ID : V_MPEG4/ISO/AVC
Duration : 1 h 58 min
Bit rate : 5 219 kb/s
Width : 1 280 pixels
Height : 534 pixels
Display aspect ratio : 2.40:1
Frame rate mode : Constant
Frame rate : 23.976 (24000/1001) FPS
Color space : YUV
Chroma subsampling : 4:2:0
Bit depth : 8 bits
Scan type : Progressive
Bits/(Pixel*Frame) : 0.318
Stream size : 4.33 GiB (81%)
Writing library : core 140 r2377+40 929f149 tMod [[email protected]:2:0 X86_64]
Encoding settings : cabac=1 / ref=12 / deblock=1:-3:-3 / analyse=0x3:0x113 / me=umh / subme=11 / psy=1 / fade_compensate=0.00 / psy_rd=1.05:0.00 / mixed_ref=1 / me_range=32 / chroma_me=1 / trellis=2 / 8x8dct=1 / cqm=0 / deadzone=21,11 / fast_pskip=0 / chroma_qp_offset=-2 / threads=18 / lookahead_threads=3 / sliced_threads=0 / nr=0 / decimate=0 / interlaced=0 / bluray_compat=0 / constrained_intra=0 / fgo=0 / bframes=8 / b_pyramid=2 / b_adapt=2 / b_bias=0 / direct=3 / weightb=1 / open_gop=0 / weightp=2 / keyint=240 / keyint_min=24 / scenecut=40 / intra_refresh=0 / rc=crf / mbtree=0 / crf=17.0000 / qcomp=0.70 / qpmin=0:0:0 / qpmax=69:69:69 / qpstep=4 / ip_ratio=1.15 / pb_ratio=1.15 / aq=4:0.85 / aq-sensitivity=10.00 / aq-factor=1.00:1.00:1.00 / aq2=0 / aq3=0
Language : English
Default : Yes
Forced : No

Audio #1
ID : 2
Format : AC-3
Format/Info : Audio Coding 3
Codec ID : A_AC3
Duration : 1 h 58 min
Bit rate mode : Constant
Bit rate : 192 kb/s
Channel(s) : 2 channels
Channel positions : Front: L R
Sampling rate : 48.0 kHz
Frame rate : 31.250 FPS (1536 SPF)
Bit depth : 16 bits
Compression mode : Lossy
Stream size : 163 MiB (3%)
Title : Ukr_Line
Language : Ukrainian
Service kind : Complete Main
Default : Yes
Forced : Yes

Audio #2
ID : 3
Format : AC-3
Format/Info : Audio Coding 3
Codec ID : A_AC3
Duration : 1 h 58 min
Bit rate mode : Constant
Bit rate : 192 kb/s
Channel(s) : 2 channels
Channel positions : Front: L R
Sampling rate : 48.0 kHz
Frame rate : 31.250 FPS (1536 SPF)
Bit depth : 16 bits
Compression mode : Lossy
Stream size : 163 MiB (3%)
Title : Cine+
Language : Ukrainian
Service kind : Complete Main
Default : No
Forced : No

Audio #3
ID : 4
Format : AC-3
Format/Info : Audio Coding 3
Codec ID : A_AC3
Duration : 1 h 58 min
Bit rate mode : Constant
Bit rate : 192 kb/s
Channel(s) : 2 channels
Channel positions : Front: L R
Sampling rate : 48.0 kHz
Frame rate : 31.250 FPS (1536 SPF)
Bit depth : 16 bits
Compression mode : Lossy
Stream size : 163 MiB (3%)
Title : ictv
Language : Ukrainian
Service kind : Complete Main
Default : No
Forced : No

Audio #4
ID : 5
Format : AC-3
Format/Info : Audio Coding 3
Codec ID : A_AC3
Duration : 1 h 58 min
Bit rate mode : Constant
Bit rate : 640 kb/s
Channel(s) : 6 channels
Channel positions : Front: L C R, Side: L R, LFE
Sampling rate : 48.0 kHz
Frame rate : 31.250 FPS (1536 SPF)
Bit depth : 16 bits
Compression mode : Lossy
Stream size : 543 MiB (10%)
Language : English
Service kind : Complete Main
Default : No
Forced : No

Text
ID : 6
Format : UTF-8
Codec ID : S_TEXT/UTF8
Codec ID/Info : UTF-8 Plain Text
Duration : 1 h 53 min
Bit rate : 31 b/s
Count of elements : 795
Stream size : 26.2 KiB (0%)
Language : English
Default : Yes
Forced : No

Menu
00:00:00.000 : en:
00:08:22.668 : en:
00:19:44.600 : en:
00:30:00.799 : en:
00:42:49.316 : en:
00:51:07.814 : en:
01:03:07.950 : en:
01:11:46.844 : en:
01:21:01.857 : en:
01:33:41.324 : en:
01:44:40.774 : en:
01:54:50.925 : en:
Скріншоти


Джерело:
Особиста оцінка: 7 - моїй подрузі не сподобалося


 Трекер:    Зареєстрований   

Завантажити / скачати фільм українською



відео для новачків



 Зареєстрований:   2018-12-26 15:42
 Розмір:   5.34 GB 
 Оцінка фільму:   9.4/10 (Голосів: 34)
   
Інші релізи
bot 
робот


З нами з: 30.09.07
Востаннє: 26.05.05
Повідомлень: 21626

2013-12-28 12:59  
Тему перенесено з Пісочниця до форуму Фільми в HD


Sando7

Panther2214 
VIP


З нами з: 29.09.17
Востаннє: 17.07.19
Повідомлень: 264

2018-09-09 23:34  
Мені сподобався, трішки фантастики трішки жахіття - укомплектований проект, Дізель як завжди не підвів, саме ця частина з трилогії сподобалась найбільше... Тай взагалі, якісний реліз та переклад, чудова робота....
Anonymous 







2018-12-26 15:43  
Додано озвучення Cine+ та ictv
Panther2214 
VIP


З нами з: 29.09.17
Востаннє: 17.07.19
Повідомлень: 264

2018-12-26 21:08  
Щоб далі роздавати реліз, оновити торрент файл - перезавантаживши його???
Ваш часовий пояс: GMT + 2 Години

Нова тема   Відповісти