Дім / Home (2009) 1080p 2xUkr/Eng | Sub Eng

Нові коментарі

Нова тема   Відповісти
Автор Повідомлення
BMK12 
Відео Гуртом - підтримка та поширення
Відео Гуртом - підтримка та поширення


З нами з: 13.04.09
Востаннє: 21.08.17
Повідомлень: 3110

2013-12-27 17:30  
Дім / Home (2009) 1080p 2xUkr/Eng | Sub Eng

Дім / Home (2009) 1080p 2xUkr/Eng | Sub Eng


Жанр: документальний, драма
Країна: Франція



Кінокомпанія: Elzevir Films, Europa Corp., France 2 (FR2)
Режисер: Ян Артус Бертранд / Yann Arthus-Bertrand
Сюжет:
Фільм демонструє нам красу планети і наслідки руйнувань, здійснені діяльністю людини. Шрами, спричинені промисловим виробництвом, наслідками воєн, екологічних катастроф, розкривають глядачу реальну ситуацію на планеті.
Під час створення фільму HOME було створено 500000 фотографій, які були зроблені в більше ніж 100 країнах світу, продано 3 мільйони книг, проведено 100 безкоштовних виставок з більш ніж 100 мільйонів відвідувачів, знято 4 документальних фільми з глядацькою аудиторією 5 мільйонів чоловік. 5 червня 2009 року, у Всесвітній день навколишнього середовища, екологічно-просвітницька картина «Home» Яна Артюса-Бертрана і Люка Бессона, стала першим фільмом, прем'єра якого пройшла одночасно в 87 містах різних країн світу і на YouTube.


Тривалість: 01:29:34
Якість: 1080p
Відео:
кодек:
розмір кадру: 1920 х 1080
бітрейт: 9 333 кб/с

Аудіо # 1:
мова: українська
переклад: професійний дубльований |
кодек: 2.0
бітрейт: 192 кб/с

Аудіо # 2:
мова: українська
переклад: одноголосий закадровий |
кодек: 2.0
бітрейт: 192 кб/с

Аудіо # 3:
мова: англійська
переклад: оригінал
кодек: 5.1
бітрейт: 1 509 кб/с

Субтитри:
мова: англійська
тип: програмні (м'які)
формат: *.srt

Info
General
Unique ID : 180021887801869010208888212113596921653 (0x876EF455EF866DBBB55452D3FCA4B735)
Complete name : S:\Torrents\Documentary\Home (2009) [2xUkr, Eng, Sub Eng] 1080p [Hurtom].
Format :
Format version : Version 4 / Version 2
File size : 7.17 GiB
Duration : 1h 29mn
Overall bit rate : 11.5 Mbps
Encoded date : UTC 2013-12-27 13:31:57
Writing application : mkvmerge v6.6.0 ('The Edge Of The In Between') built on Dec 1 2013 17:55:00
Writing library : libebml v1.3.0 + libmatroska v1.4.1

Video
ID : 1
Format : AVC
Format/Info : Advanced Video Codec
Format profile : [email protected]
Format settings, CABAC : Yes
Format settings, ReFrames : 5 frames
Codec ID : V_MPEG4/ISO/AVC
Duration : 1h 29mn
Bit rate : 9 333 Kbps
Width : 1 920 pixels
Height : 1 080 pixels
Display aspect ratio : 16:9
Frame rate mode : Constant
Frame rate : 25.000 fps
Color space : YUV
Chroma subsampling : 4:2:0
Bit depth : 8 bits
Scan type : Progressive
Bits/(Pixel*Frame) : 0.180
Stream size : 5.84 GiB (81%)
Writing library : core 67 r1162M f7bfcfa
Encoding settings : cabac=1 / ref=5 / deblock=1:0:0 / analyse=0x3:0x133 / me=umh / subme=7 / psy_rd=1.0:0.0 / mixed_ref=1 / me_range=16 / chroma_me=1 / trellis=1 / 8x8dct=1 / cqm=0 / deadzone=21,11 / chroma_qp_offset=-2 / threads=6 / nr=0 / decimate=0 / mbaff=0 / bframes=3 / b_pyramid=1 / b_adapt=1 / b_bias=0 / direct=1 / wpredb=1 / keyint=250 / keyint_min=25 / scenecut=40 / rc=crf / crf=22.0 / qcomp=0.60 / qpmin=10 / qpmax=51 / qpstep=4 / ip_ratio=1.40 / pb_ratio=1.30 / aq=1:1.00
Language : English
Default : Yes
Forced : No

Audio #1
ID : 2
Format : AC-3
Format/Info : Audio Coding 3
Mode extension : CM (complete main)
Format settings, Endianness : Big
Codec ID : A_AC3
Duration : 1h 29mn
Bit rate mode : Constant
Bit rate : 192 Kbps
Channel count : 2 channels
Channel positions : Front: L R
Sampling rate : 48.0 KHz
Bit depth : 16 bits
Compression mode : Lossy
Stream size : 123 MiB (2%)
Title : DVD dubbed, 2ch
Language : Ukrainian
Default : Yes
Forced : No

Audio #2
ID : 3
Format : AC-3
Format/Info : Audio Coding 3
Mode extension : CM (complete main)
Format settings, Endianness : Big
Codec ID : A_AC3
Duration : 1h 29mn
Bit rate mode : Constant
Bit rate : 192 Kbps
Channel count : 2 channels
Channel positions : Front: L R
Sampling rate : 48.0 KHz
Bit depth : 16 bits
Compression mode : Lossy
Stream size : 123 MiB (2%)
Title : 1+1 voiceover, 2ch
Language : Ukrainian
Default : No
Forced : No

Audio #3
ID : 4
Format :
Format/Info : Digital Theater Systems
Mode : 16
Format settings, Endianness : Big
Codec ID : A_DTS
Duration : 1h 29mn
Bit rate mode : Constant
Bit rate : 1 509 Kbps
Channel count : 6 channels
Channel positions : Front: L C R, Side: L R, LFE
Sampling rate : 48.0 KHz
Bit depth : 24 bits
Compression mode : Lossy
Stream size : 967 MiB (13%)
Title : , 6ch 1536 kbps
Language : English
Default : No
Forced : No

Text
ID : 5
Format : UTF-8
Codec ID : S_TEXT/UTF8
Codec ID/Info : UTF-8 Plain Text
Title : Full
Language : English
Default : No
Forced : No

Menu
00:00:00.000 : :00:00:00.000
00:04:26.760 : :00:04:26.760
00:09:40.000 : :00:09:40.000
00:14:10.800 : :00:14:10.800
00:19:51.000 : :00:19:51.000
00:24:22.360 : :00:24:22.360
00:32:06.000 : :00:32:06.000
00:35:20.000 : :00:35:20.000
00:39:39.840 : :00:39:39.840
00:44:28.280 : :00:44:28.280
00:48:00.000 : :00:48:00.000
00:51:18.280 : :00:51:18.280
00:56:11.560 : :00:56:11.560
00:59:27.000 : :00:59:27.000
01:02:59.000 : :01:02:59.000
01:07:36.000 : :01:07:36.000
01:11:06.960 : :01:11:06.960
01:17:29.200 : :01:17:29.200
01:20:58.120 : :01:20:58.120
01:25:04.000 : :01:25:04.000
Скріншоти


Українські доріжки звідси: https://toloka.to/t36872
Джерело: &
Особиста оцінка: 10 - без зайвих вагань рекомендую всім!


 Трекер:    Зареєстрований   

Завантажити / скачати фільм українською



відео для новачків



 Зареєстрований:   2013-12-27 17:30
 Розмір:   7.17 GB 
 Оцінка фільму:   8.2/10 (Голосів: 53)
   
BMK12 
Відео Гуртом - підтримка та поширення
Відео Гуртом - підтримка та поширення


З нами з: 13.04.09
Востаннє: 21.08.17
Повідомлень: 3110

2013-12-27 17:30  
Мій перший реліз відео - прохання сильно не копати.
vadoos 
Новенький


З нами з: 24.06.12
Востаннє: 18.07.17
Повідомлень: 24

2014-11-18 19:46  
Класне кiно рекомендую !!
bodianchik 
Новенький


З нами з: 11.11.12
Востаннє: 25.06.17
Повідомлень: 20

2016-06-21 18:45  
Просто неймовірний фільм.
FRK 
Частий відвідувач


З нами з: 10.01.14
Востаннє: 19.08.17
Повідомлень: 31

2017-04-08 15:04  
сумний фільм, особливо через 8 років. все тільки погіршилось.
Ваш часовий пояс: GMT + 2 Години

Нова тема   Відповісти