Приготування і Висадка: Неслухи проти слухняних /Prep And Landing: Naughty Vs Nice (2011) 720p Ukr/Eng | Sub Ukr

Нові коментарі

Нова тема   Відповісти
Автор Повідомлення
BOOGud 
VIP


З нами з: 06.03.12
Востаннє: 23.07.17
Повідомлень: 907

2013-12-08 13:31  
Приготування і Висадка: Неслухи проти слухняних /Prep And Landing: Naughty Vs Nice 720p Ukr/Eng | Sub Ukr

Приготування і Висадка: Неслухи проти слухняних /Prep And Landing: Naughty Vs Nice (2011) 720p Ukr/Eng | Sub Ukr


Жанр: сімейний, комедія, анімація, фентезі
Країна: США



Кінокомпанія: Walt Disney Pictures
Режисер: Кевін Дітерс, Стіві Вермерс / Kevin Deters, Stevie Wermers
Актори: Сара Чок, Дейв Фолі, Дерек Річардсон, Роб Ріггл, Емілі Елін Лінд

Переклад : Maryena
Озвученна: Maryena, Макс Ткачук, Сергій Шеремет, Дмитро Роєцький, Дмитро Урсуляк
Монтаж та робота зі звуком: Мар'єна.
Об'ємний звук(5.1): BOOGud
Обкладинки:


Сюжет:
Новий короткометражний мультфільм від творців "Секретної служби Санта Клауса". Що може бути складніше, ніж врятувати прийдешнє Різдво?! Доля підготувала відважним ельфам Уейну і Ленні нову місію з порятунку прийдешнього свята ... А допоможе їм у цьому старий знайомий Уейна - ельф-вугляр Ноель. Пригоди починаються!


Тривалість: 00:22:34
Якість:
Відео:
кодек:
розмір кадру: 1 280 х 720
бітрейт: 3 006 кб/с

Аудіо # 1:
мова: українська
переклад: багатоголосий закадровий
кодек: 5.1
бітрейт: 640 кб/с

Аудіо # 2:
мова: англійська
переклад: оригінал
кодек: 5.1
бітрейт: 1 509 кб/с

Субтитри:
мова: українська
тип: програмні (м'які)
формат: *.srt
Info
General
Unique ID : 192217018370312822803497841874481342369 (0x909BA6B1C48FEF23AC930B00FF3267A1)
Complete name : K:\ozvuchka2\Prep.And.Landing.Naughty.Vs.Nice.720p.UAVoice.
Format :
Format version : Version 4 / Version 2
File size : 796 MiB
Duration : 21mn 36s
Overall bit rate : 5 153 Kbps
Encoded date : UTC 2013-12-15 18:05:40
Writing application : mkvmerge v6.6.0 ('The Edge Of The In Between') built on Dec 1 2013 17:55:00
Writing library : libebml v1.3.0 + libmatroska v1.4.1

Video
ID : 1
Format : AVC
Format/Info : Advanced Video Codec
Format profile : [email protected]
Format settings, CABAC : Yes
Format settings, ReFrames : 8 frames
Codec ID : V_MPEG4/ISO/AVC
Duration : 21mn 36s
Bit rate : 3 006 Kbps
Width : 1 280 pixels
Height : 720 pixels
Display aspect ratio : 16:9
Frame rate mode : Constant
Frame rate : 23.976 fps
Color space : YUV
Chroma subsampling : 4:2:0
Bit depth : 8 bits
Scan type : Progressive
Bits/(Pixel*Frame) : 0.136
Stream size : 448 MiB (56%)
Writing library : core 120
Encoding settings : cabac=1 / ref=8 / deblock=1:-3:-3 / analyse=0x3:0x113 / me=hex / subme=7 / psy=1 / psy_rd=1.00:0.00 / mixed_ref=1 / me_range=16 / chroma_me=1 / trellis=1 / 8x8dct=1 / cqm=0 / deadzone=21,11 / fast_pskip=1 / chroma_qp_offset=-2 / threads=3 / sliced_threads=0 / nr=0 / decimate=1 / interlaced=0 / bluray_compat=0 / constrained_intra=0 / bframes=3 / b_pyramid=2 / b_adapt=2 / b_bias=0 / direct=1 / weightb=1 / open_gop=0 / weightp=2 / keyint=240 / keyint_min=24 / scenecut=40 / intra_refresh=0 / rc_lookahead=10 / rc=2pass / mbtree=1 / bitrate=3006 / ratetol=1.0 / qcomp=0.60 / qpmin=3 / qpmax=69 / qpstep=4 / cplxblur=20.0 / qblur=0.5 / ip_ratio=1.40 / aq=1:1.00
Language : English
Default : Yes
Forced : No
Color primaries : BT.709
Transfer characteristics : BT.709
Matrix coefficients : BT.709

Audio #1
ID : 2
Format : AC-3
Format/Info : Audio Coding 3
Mode extension : CM (complete main)
Format settings, Endianness : Big
Codec ID : A_AC3
Duration : 21mn 36s
Bit rate mode : Constant
Bit rate : 640 Kbps
Channel count : 6 channels
Channel positions : Front: L C R, Side: L R, LFE
Sampling rate : 48.0 KHz
Bit depth : 16 bits
Compression mode : Lossy
Stream size : 98.9 MiB (12%)
Title : UKR(UAVoice)
Language : Ukrainian
Default : No
Forced : No

Audio #2
ID : 3
Format :
Format/Info : Digital Theater Systems
Mode : 16
Format settings, Endianness : Big
Codec ID : A_DTS
Duration : 21mn 36s
Bit rate mode : Constant
Bit rate : 1 509 Kbps
Channel count : 6 channels
Channel positions : Front: L C R, Side: L R, LFE
Sampling rate : 48.0 KHz
Bit depth : 24 bits
Compression mode : Lossy
Stream size : 233 MiB (29%)
Title : ENG
Language : English
Default : No
Forced : No

Text
ID : 4
Format : UTF-8
Codec ID : S_TEXT/UTF8
Codec ID/Info : UTF-8 Plain Text
Title : UKR(Maryena)
Language : Ukrainian
Default : No
Forced : No
Скріншоти




























Джерело: uavoice.com
Особиста оцінка: 10 - без зайвих вагань рекомендую всім!


Авторський реліз (завантажувати можна без реєстрації)
 Трекер:    Зареєстрований   

Завантажити / скачати мультфільм українською



відео для новачків



 Зареєстрований:   2013-12-15 21:21
 Розмір:   796 MB 
 Оцінка мультфільму:   8.9/10 (Голосів: 17)
   
BMK12 
Відео Гуртом - підтримка та поширення
Відео Гуртом - підтримка та поширення


З нами з: 13.04.09
Востаннє: 17.08.17
Повідомлень: 3110

2013-12-08 13:34  
Рік пропустили.
BOOGud 
VIP


З нами з: 06.03.12
Востаннє: 23.07.17
Повідомлень: 907

2013-12-08 13:50  
BMK12 написано:
Рік пропустили.

дякую, виправив

Dr.Yurko 
Свій


З нами з: 14.03.10
Востаннє: 13.08.17
Повідомлень: 136

2013-12-08 13:54  
Чи це та ж озвучка, що тут https://toloka.to/t42709?
BOOGud 
VIP


З нами з: 06.03.12
Востаннє: 23.07.17
Повідомлень: 907

2013-12-08 14:00  
Dr.Yurko написано:
Чи це та ж озвучка, що тут https://toloka.to/t42709?

ні, це взагалі різні мульти,

BMK12 
Відео Гуртом - підтримка та поширення
Відео Гуртом - підтримка та поширення


З нами з: 13.04.09
Востаннє: 17.08.17
Повідомлень: 3110

2013-12-08 14:00  
BOOGud
Можливо варто ще в першому повідомленні поправити.

kino. 
Модератор відео


З нами з: 27.06.10
Востаннє: 17.08.17
Повідомлень: 2898

2013-12-08 14:07  
BOOGud написано:
Muxing mode : Header stripping

У файлах . повинна бути вимкнена функція Header stripping (* як це зробити

Dr.Yurko 
Свій


З нами з: 14.03.10
Востаннє: 13.08.17
Повідомлень: 136

2013-12-14 02:07  
BOOGud написано:
ні, це взагалі різні мульти,

Перепрошую, не зауважив ))))))

bot 
робот


З нами з: 30.09.07
Востаннє: 26.05.05
Повідомлень: 17363

2013-12-15 21:20  
Тему перенесено з Неоформлене відео до форуму Мультфільми в HD


Konfucius

Ваш часовий пояс: GMT + 2 Години

Нова тема   Відповісти