Воруши ластами 2: Втеча з раю / Sammy's avonturen 2 (2012) 720p Ukr/Eng | Sub Dut/Fre

Нові коментарі

Нова тема   Відповісти
Автор Повідомлення
Drool 
VIP


З нами з: 17.04.10
Востаннє: 17.08.17
Повідомлень: 1367

2013-12-01 15:15  
Воруши ластами 2: Втеча з раю / Sammy's avonturen 2 (2012) 720p Ukr/Eng | Sub Dut/Fre

Жанр: анімація, пригоди, сімейний
Країна: Бельгія



Кінокомпанія: Motion Investment Group
Режисер: Бен Стассен
Актори: Ізабелль Фюрман, Карлос МакКаллерс ІІ, Мелані Гріффіт, Уеслі Джонні

Сюжет:
Кумедні черепахи з фільму "Воруши ластами", що полюбилися глядачам по всьому світу, повертаються! Вірні друзі назавжди, черепахи Семмі і Рей, насолоджуються розміреним життям поблизу океану, а також доглядають за Ріккі і Еллою, які щойно вилупилися. Раптом, браконьєр хапає великих черепах, вони потрібні йому для захоплюючого морського шоу в Дубаї. Центральна фігура шоу, морський коник Великий Ді (Big D), присвячує новачків у свої плани на грандіозну втечу. Але, коли маленькі Ріккі і Елла прибувають, щоб врятувати "дідусів", плани черепах і їх нових друзів: рибки Джимбо, восьминога Анабель, омара і великої родини пінгвінів, змінюються. Після низки хвилюючих пригод і втеч, наші герої прямують на південь, щоб зустрітися з Шеллі, першим і єдиним коханням Семмі.


Тривалість: 01:32:50
Якість: 720p
Відео:
кодек:
розмір кадру: 1280x720
бітрейт: 4467 кб/с

Аудіо # 1:
мова: українська
переклад: професійний дубльований
кодек: 5.1
бітрейт: 448 кб/с

Аудіо # 2:
мова: англійська
переклад: професійний дубльований
кодек: 5.1
бітрейт: 1510 кб/с

Джерело озвучення:


Субтитри:
мова: голландська
тип: програмні (м'які)
формат: *.srt

Субтитри:
мова: французька
тип: програмні (м'які)
формат: *.srt
Info
General
Unique ID : 98940248742652686068396443596241920996 (0x4A6F32E2F98860052AD9E8D132CA63E4)
Complete name : /mnt/data/torrents/Sammy's.Avonturen.2.2012Ukr.Dub.Eng..720p.
Format :
Format version : Version 4 / Version 2
File size : 4.25 GiB
Duration : 1h 32mn
Overall bit rate : 6 556 Kbps
Movie name : Воруши ластами 2: Втеча з раю / Sammy's avonturen 2 (2012) 720p
Encoded date : UTC 2010-02-22 21:41:31
Writing application : mkvmerge v6.1.0 ('Old Devil') built on Apr 14 2013 12:26:22
Writing library : libebml v1.3.0 + libmatroska v1.4.0

Video
ID : 1
Format : AVC
Format/Info : Advanced Video Codec
Format profile : [email protected]
Format settings, CABAC : Yes
Format settings, ReFrames : 9 frames
Codec ID : V_MPEG4/ISO/AVC
Duration : 1h 32mn
Bit rate : 4 467 Kbps
Width : 1 280 pixels
Height : 720 pixels
Display aspect ratio : 16:9
Frame rate : 23.976 fps
Color space : YUV
Chroma subsampling : 4:2:0
Bit depth : 8 bits
Scan type : Progressive
Bits/(Pixel*Frame) : 0.202
Stream size : 2.90 GiB (68%)
Title : Воруши ластами 2: Втеча з раю / Sammy's avonturen 2 (2012) 720p
Default : Yes
Forced : Yes

Audio #1
ID : 2
Format : AC-3
Format/Info : Audio Coding 3
Mode extension : CM (complete main)
Codec ID : A_AC3
Duration : 1h 32mn
Bit rate mode : Constant
Bit rate : 448 Kbps
Channel(s) : 6 channels
Channel positions : Front: L C R, Side: L R, LFE
Sampling rate : 48.0 KHz
Bit depth : 16 bits
Compression mode : Lossy
Stream size : 298 MiB (7%)
Title : Рідна мова (дубляж) 448 kbps
Language : Ukrainian
Default : Yes
Forced : No

Audio #2
ID : 3
Format :
Format/Info : Digital Theater Systems
Codec ID : A_DTS
Duration : 1h 32mn
Bit rate mode : Constant
Bit rate : 1 510 Kbps
Channel(s) : 6 channels
Channel positions : Front: L C R, Side: L R, LFE
Sampling rate : 48.0 KHz
Bit depth : 24 bits
Compression mode : Lossy
Stream size : 1 003 MiB (23%)
Title : 5.1 @ 1536 kbps
Language : English
Default : No
Forced : No

Text #1
ID : 4
Format : UTF-8
Codec ID : S_TEXT/UTF8
Codec ID/Info : UTF-8 Plain Text
Title : Dutch
Language : Dutch
Default : No
Forced : No

Text #2
ID : 5
Format : UTF-8
Codec ID : S_TEXT/UTF8
Codec ID/Info : UTF-8 Plain Text
Title : French
Language : French
Default : No
Forced : No

Menu
00:00:00.000 : en:00:00:00.000
00:12:09.854 : en:00:12:09.854
00:21:48.224 : en:00:21:48.224
00:34:51.548 : en:00:34:51.548
00:45:52.375 : en:00:45:52.375
00:57:20.687 : en:00:57:20.687
01:07:48.189 : en:01:07:48.189
01:20:06.260 : en:01:20:06.260
Скріншоти



Джерело:
Особиста оцінка: 0 - не дивився


 Трекер:    Зареєстрований   

Завантажити / скачати мультфільм українською



відео для новачків



 Зареєстрований:   2013-12-01 15:15
 Розмір:   4.25 GB 
 Оцінка мультфільму:   10/10 (Голосів: 14)
   
Інші релізи
Drool 
VIP


З нами з: 17.04.10
Востаннє: 17.08.17
Повідомлень: 1367

2013-12-01 15:17  
Велика подяка пану lnkvisitor за надані технічні засоби та інтернет-канал Happy
юрік1978 
Новенький


З нами з: 15.12.13
Востаннє: 07.06.16
Повідомлень: 1

2013-12-19 15:19  
дякую! надіюсь продовження тке ж гарне!
Ваш часовий пояс: GMT + 2 Години

Нова тема   Відповісти