Доктор Хто (Сезон 4, спец.епізоди; Сезон 5, серії 1-11) / Doctor Who (Season 4, specials; Season 5, Episodes 1-11) (2008-2010) 720p Eng | sub Ukr

Нові коментарі

Нова тема   Відповісти
Автор Повідомлення
dr_stas 
Відео Гуртом - дизайнер
Відео Гуртом - дизайнер


З нами з: 21.07.09
Востаннє: 22.08.17
Повідомлень: 457

2013-12-01 00:59  
Доктор Хто (Сезон 4, спец.епізоди; Сезон 5, серії 1-11) / Doctor Who (Season 4, specials; Season 5, Episodes 1-11) (2008-2010) 720p Eng | sub Ukr

Доктор Хто (Сезон 4, спец.епізоди; Сезон 5, серії 1-11) / Doctor Who (Season 4, specials; Season 5, Episodes 1-11) (2008-2010) 720p Eng | sub Ukr


Жанр: пригодницький, комедія, фантастика, сімейний
Країна: Великобританія



Кінокомпанія: BBC
Режисер: Адам Сміт (Adam Smith), Кетерін Моршед (Catherine Morshead), Джоні Кемпбел (Jonny Campbell) та інші
Актори: Мет Сміт (Matt Smith), Девід Теннант (David Tennant), Карен Ґіллан (Karen Gillan), Артур Дарвілл (Arthur Darvill), Алекс Кінґстон (Alex Kingston) та інші

Сюжет:
Доктор Хто (англ. Doctor Who) — британський науково-фантастичний телесеріал компанії BBC про загадкового інопланетного мандрівника в часі, відомого як «Доктор».
Доктор - володар часу, що подорожує крізь простір та час у своєму космічному кораблі - Тардісі. Разом зі своїми супутниками він досліджує час і простір, попутно вирішуючи різні проблеми і відновлюючи справедливість. Завжди веселий, самовдоволений та самовпевнений Доктор починає розкривати свої таємниці...


Тривалість: Серії: ~01:10:00, ~45:00 (цілком серій: 4+11)
Перелік серій
Спец.епізоди 4го сезону:
Planet of the Dead - Планета мертвих
The Waters of Mars - Води Марса
The End of Time: Part One - Кінець часу частина 1
The End of Time: Part Two - Кінець часу частина 2

5 сезон:
The Eleventh Hour - Одинадцята година
The Beast Below - Звір знизу
Victory of the Daleks - Перемога далеків
The Time of Angels - Час янголів
Flesh and Stone - Плоть і камінь
The Vampires of Venice - Вампіри у Венеції
Amy's Choice - Вибір Емі
The Hungry Earth - Голодна Земля
Cold Blood - Холодна кров
Vincent and the Doctor - Вінсент і Доктор
The Lodger - Квартирант
Якість:
Відео:
кодек:
розмір кадру: 1280 х 720
бітрейт: 2 971 кб/с

Аудіо:
мова: англійська
переклад: оригінал
кодек: 5.1
бітрейт: 384 кб/с

Субтитри:
мова: українська
тип: програмні (м'які)
переклад: група West Ukraine та Jojinella
формат: *.srt

Info
General
Unique ID : 187789093358839606269826609332948432802 (0x8D46DD22D7CEA59410FC328D443DF7A2)
Complete name : D:\Movie\Doctor Who (2005) 720p Eng_Sub Ukr\Сезон 5\Doctor.Who.S05E01.The.Eleventh.Hour.720p.
Format :
Format version : Version 2
File size : 1.46 GiB
Duration : 1h 4mn
Overall bit rate : 3 237 Kbps
Encoded date : UTC 2010-04-03 19:02:00
Writing application : mkvmerge v2.9.8 ('C'est le bon') built on Aug 13 2009 16:16:13
Writing library : libebml v0.7.7 + libmatroska v0.8.1

Video
ID : 1
Format : AVC
Format/Info : Advanced Video Codec
Format profile : [email protected]
Format settings, CABAC : Yes
Format settings, ReFrames : 4 frames
Codec ID : V_MPEG4/ISO/AVC
Duration : 1h 4mn
Bit rate : 2 849 Kbps
Width : 1 280 pixels
Height : 720 pixels
Display aspect ratio : 16:9
Frame rate : 25.000 fps
Color space : YUV
Chroma subsampling : 4:2:0
Bit depth : 8 bits
Scan type : Progressive
Bits/(Pixel*Frame) : 0.124
Stream size : 1.26 GiB (86%)
Writing library : core 84 r1416 fcf70c2
Encoding settings : cabac=1 / ref=3 / deblock=1:0:0 / analyse=0x3:0x113 / me=hex / subme=6 / psy=1 / psy_rd=1.0:0.0 / mixed_ref=1 / me_range=16 / chroma_me=1 / trellis=1 / 8x8dct=1 / cqm=0 / deadzone=21,11 / fast_pskip=1 / chroma_qp_offset=-2 / threads=12 / sliced_threads=0 / nr=0 / decimate=1 / mbaff=0 / constrained_intra=0 / bframes=3 / b_pyramid=2 / b_adapt=1 / b_bias=0 / direct=1 / wpredb=1 / wpredp=2 / keyint=250 / keyint_min=25 / scenecut=40 / intra_refresh=0 / rc=2pass / mbtree=0 / bitrate=2849 / ratetol=1.0 / qcomp=0.60 / qpmin=10 / qpmax=51 / qpstep=4 / cplxblur=20.0 / qblur=0.5 / ip_ratio=1.40 / pb_ratio=1.30 / aq=1:1.00

Audio
ID : 2
Format : AC-3
Format/Info : Audio Coding 3
Mode extension : CM (complete main)
Codec ID : A_AC3
Duration : 1h 4mn
Bit rate mode : Constant
Bit rate : 384 Kbps
Channel(s) : 6 channels
Channel positions : Front: L C R, Side: L R, LFE
Sampling rate : 48.0 KHz
Bit depth : 16 bits
Compression mode : Lossy
Stream size : 177 MiB (12%)


Скріншоти










Джерело: та інше
Особиста оцінка: 10 - без зайвих вагань рекомендую всім!


Золотий реліз (завантажене не впливає на рейтинг)
 Трекер:    Зареєстрований   

Завантажити / скачати серіал українською



відео для новачків



 Зареєстрований:   2013-12-01 00:59
 Розмір:   18.94 GB 
 Оцінка серіалу:   10/10 (Голосів: 21)
   
VolBog 
Новенький


З нами з: 20.10.13
Востаннє: 06.08.17
Повідомлень: 14

2013-12-06 14:25  
Сідерів так небуде?
І немає сезону в озвучці?

madara 
Свій


З нами з: 18.06.10
Востаннє: 20.08.17
Повідомлень: 71

2013-12-12 13:03  
VolBog
ні озвучки нема

Patlatus 
Відео Гуртом - підтримка та поширення
Відео Гуртом - підтримка та поширення


З нами з: 18.12.08
Востаннє: 16.08.17
Повідомлень: 99

2014-05-19 10:25  
Це повний сезон? всі серії?
Якщо не всі, чи будуть всі?

UARAP 
VIP


З нами з: 10.05.08
Востаннє: 21.08.17
Повідомлень: 305

2014-08-07 11:01  
Станьте, будь ласка, на роздачу.)
ImfromUkraine 
VIP


З нами з: 18.02.12
Востаннє: 22.08.17
Повідомлень: 289

2015-09-10 12:42  
будьте ласкаві станьте ще хтось на роздачу (у мене якась там ай-пі, не до всіх коннект іде) дякую)
UARAP 
VIP


З нами з: 10.05.08
Востаннє: 21.08.17
Повідомлень: 305

2015-09-14 13:46  
Дайте, будь ласка, швидкості.
xz_SLIM_zx 
VIP


З нами з: 15.03.12
Востаннє: 22.08.17
Повідомлень: 375

2015-11-30 15:52  
А коли чекати наступні серії 5ого сезону та й взагалі скільки їх загалом?
Вовча 
Новенький


З нами з: 09.01.13
Востаннє: 15.08.17
Повідомлень: 4

2015-12-03 19:40  
xz_SLIM_zx

У п'ятому сезоні 13 серій плюс різдвяний спецвипуск, загалом не вистачає ще трьох.

vovkulak88 
Новенький


З нами з: 08.09.09
Востаннє: 22.08.17
Повідомлень: 10

2016-11-10 22:32  
А може хтось на роздачу стати? 4 дні качати - це дурдом.
xarakternik 
Новенький


З нами з: 03.03.11
Востаннє: 19.08.17
Повідомлень: 3

2017-03-08 22:13  
4 дні? - щастить ))

added 20/02
eta 4w 5d
speed 6.5 KiB/s
progress 11.15%

Wide grin

я все одно витягну. Передаю привіт Нідерландам. Єдиний сід, який, мабуть, отримує інтернет від вітряків ))

Ваш часовий пояс: GMT + 2 Години

Нова тема   Відповісти