Покидьки (Сезон 5) / Misfits (Season 5) (2013) 720p Ukr/Eng

Нові коментарі

Нова тема   Відповісти
Автор Повідомлення
Anonymous 







2013-11-29 15:35  
Покидьки (Сезон 5) / Misfits (Season 5) (2013) 720p Ukr/Eng

Покидьки (Сезон 5) / Misfits (Season 5) (2013) 720p Ukr/Eng


Жанр: фантастика, фентезі, драма, комедія
Країна: Велика Британія



Кінокомпанія: Clerkenwell Films
Режисер: Том Грін, Джонатан ван Тюллекен, Том Харпер
Актори: Джозеф Ґілґан, Натан Стюарт-Джарретт, Нейтан МакМаллен, Карла Кроум, Метт Стокоу, Меттью МакНалті, Шон Дулі

Сюжет:
Група підлітків, відпрацьовує покарання на виправних роботах і в результаті дії дивної грози кожен з них отримує певні надприродні здібності. На жаль ці здібності лише ускладнюють їм життя, і замість того щоб стати супергероями, вони стараються вибратись з халеп у які потрапляють. .


Тривалість: 1 серія: 00:45:33 (цілком серій: 8)
Якість:
Відео:
кодек:
розмір кадру: 1280 х 720
бітрейт: 2295 кб/с

Аудіо # 1:
мова: українська
переклад: багатоголосий закадровий
кодек: 2.0
бітрейт: 384 кб/с

Аудіо # 2:
мова: англійська
переклад: оригінал
кодек: 2.0
бітрейт: 384 кб/с

Джерело озвучення:
Info
General
Unique ID : 202845984288865706737249282510803169070 (0x989AB72C95C1C35CAF3F0A7E4E47EF2E)
Complete name : D:\Фільми\Серіали\Misfits (Season 5)\Misfits.s05e01.HDTV.Ukr.Eng.uateam.
Format :
Format version : Version 2
File size : 1 018 MiB
Duration : 45mn 33s
Overall bit rate : 3 125 Kbps
Movie name : UATEAM.TV
Encoded date : UTC 2013-10-25 20:04:42
Writing application : v2.9.0 ('Moanin'') built on May 22 2009 17:46:31
Writing library : Larry Sanders

Video
ID : 1
Format : AVC
Format/Info : Advanced Video Codec
Format profile : [email protected]
Format settings, CABAC : Yes
Format settings, ReFrames : 5 frames
Codec ID : V_MPEG4/ISO/AVC
Duration : 45mn 33s
Bit rate : 2 295 Kbps
Width : 1 280 pixels
Height : 720 pixels
Display aspect ratio : 16:9
Frame rate mode : Constant
Frame rate : 25.000 fps
Color space : YUV
Chroma subsampling : 4:2:0
Bit depth : 8 bits
Scan type : Progressive
Bits/(Pixel*Frame) : 0.100
Stream size : 748 MiB (73%)
Writing library : core 138 r2358 9e941d1
Encoding settings : cabac=1 / ref=5 / deblock=1:0:0 / analyse=0x3:0x113 / me=umh / subme=8 / psy=1 / psy_rd=1.00:0.00 / mixed_ref=1 / me_range=16 / chroma_me=1 / trellis=1 / 8x8dct=1 / cqm=0 / deadzone=21,11 / fast_pskip=1 / chroma_qp_offset=-2 / threads=18 / lookahead_threads=3 / sliced_threads=0 / nr=0 / decimate=1 / interlaced=0 / bluray_compat=0 / constrained_intra=0 / bframes=3 / b_pyramid=2 / b_adapt=2 / b_bias=0 / direct=3 / weightb=1 / open_gop=0 / weightp=2 / keyint=250 / keyint_min=25 / scenecut=40 / intra_refresh=0 / rc_lookahead=50 / rc=crf / mbtree=1 / crf=18.0 / qcomp=0.60 / qpmin=0 / qpmax=69 / qpstep=4 / ip_ratio=1.40 / aq=1:1.00
Language : English
Default : Yes
Forced : No

Audio #1
ID : 2
Format : AC-3
Format/Info : Audio Coding 3
Mode extension : CM (complete main)
Format settings, Endianness : Big
Codec ID : A_AC3
Duration : 45mn 33s
Bit rate mode : Constant
Bit rate : 384 Kbps
Channel count : 2 channels
Channel positions : Front: L R
Sampling rate : 48.0 KHz
Bit depth : 16 bits
Compression mode : Lossy
Stream size : 125 MiB (12%)
Title : UATEAM.TV
Language : Ukrainian
Default : Yes
Forced : No

Audio #2
ID : 3
Format : AC-3
Format/Info : Audio Coding 3
Mode extension : CM (complete main)
Format settings, Endianness : Big
Codec ID : A_AC3
Duration : 45mn 33s
Bit rate mode : Constant
Bit rate : 384 Kbps
Channel count : 2 channels
Channel positions : Front: L R
Sampling rate : 48.0 KHz
Bit depth : 16 bits
Compression mode : Lossy
Stream size : 125 MiB (12%)
Default : No
Forced : No
Скріншоти










Особиста оцінка: 2 - заснув


Авторський реліз (завантажувати можна без реєстрації)
 Трекер:    Зареєстрований   

Завантажити / скачати серіал українською



відео для новачків



 Зареєстрований:   2013-12-13 17:13
 Розмір:   7.55 GB 
 Оцінка серіалу:   8.8/10 (Голосів: 15)
   
Anonymous 







2013-12-07 23:57  
7-ма!
Anonymous 







2013-12-13 17:17  
8-ма!
Нарешті цей жах закінчився!

Роздаю до перших сідів.

ADR 
Новенький


З нами з: 15.03.09
Востаннє: 27.03.17
Повідомлень: 19

2013-12-28 01:53  
NeetScrool
Чому "жах"?

don pedro 
Попереджень: 1
Попереджень: 1 


З нами з: 29.06.11
Востаннє: 04.12.20
Повідомлень: 18249

2013-12-28 13:29  
ADR
Бо серіал скурвився.

Ваш часовий пояс: GMT + 2 Години

Нова тема   Відповісти