Доктор Хто: День Доктора / Doctor Who: The Day of the Doctor (2013) 720p Ukr/Eng | sub Ukr/Eng

Нові коментарі

Нова тема   Відповісти
Автор Повідомлення
BOOGud 
VIP


З нами з: 06.03.12
Востаннє: 31.10.20
Повідомлень: 905

2013-11-28 07:07  
Доктор Хто: День Доктора / Doctor Who: The Day of the Doctor (2013) 720p Ukr/Eng | sub Ukr/Eng | Спецвипуск




Альтернативні постери

Доктор Хто: День Доктора / Doctor Who: The Day of the Doctor (2013) 720p Ukr/Eng | sub Ukr/Eng







Жанр: пригодницький, фантастика, сімейний, комедія, мелодрама
Країна: Великобританія


Кінокомпанія / телеканал: BBC
Режисер: Нік Гарран
Актори/ролі озвучують: Мет Сміт(Matt Smith), Девід Теннант(David Tennant), Джон Хурт(John Hurt), Дженна Колеман(Jenna Coleman), Біллі Пайпер(Billie Piper) та інші.

Переклад : West Ukraine
Перекладали: Juli_Bettany, deja_mort, tkachukmax, madara344 .
Озвученна: Сергій Шеремет, Maryena, Макс Ткачук, Дмитро Урсуляк
Монтаж та робота зі звуком: Мар'єна.
Обкладинки:


Сюжет:
Доктор вирушає у свою найбільшу подорож у ювілейному спецвипуску, присвяченому 50- річчю. У 2013 році щось жахливе прокидається у Лондонській Національній Галереї; у 1562 смертельна змова назріває у Англії часів Єлизаветти; і десь у космосі древня битва досягає свого руйнівного завершення. Вся реальність опиняється під загрозою,коли небезпечне минуле Доктора повертається і починає переслідувати його.



Тривалість: 01:16:31 (цілком серій: 1)
Перелік серій

День Доктора
Якість: HDTV
Відео:
кодек:
розмір кадру: 1 280 x 720
бітрейт: 3 566 кб/с (25.000fps)

Аудіо # 1:
мова: українська
переклад: багатоголосий закадровий | UAVoice
кодек: 2.0
бітрейт: 192 кб/с

Аудіо # 2:
мова: англійська
переклад: оригінал
кодек: 5.1
бітрейт: 192 кб/с

Джерело озвучення:

UAVoice

БЕЗКОШТОВНО перекладаємо та озвучуємо фільми, серіали та різноманітні відео за вашими побажаннями!

Наш сайт: uavoice.com
А також шукайте нас у Google: uavoicegroup (посилання на групу Вконтакті)



Субтитри:
мова: українська (переклад з англійської: West Ukraine)
тип: програмні (м'які)
формат: *.srt

Субтитри:
мова: англійська
тип: програмні (м'які)
формат: *.srt
Info
General
Unique ID : 232284327836186825197860907182419147125 (0xAEC05592021550C79C58E0CC0440F975)
Complete name : K:\!720\1080\The.Day.of.the.Doctor.HD720x264[UKR](UAVoice).
Format :
Format version : Version 4 / Version 2
File size : 2.15 GiB
Duration : 1h 16mn
Overall bit rate : 4 030 Kbps
Encoded date : UTC 2013-11-28 04:44:49
Writing application : v6.5.0 ('Isn't she lovely') built on Oct 20 2013 12:50:05
Writing library : Larry Sanders

Video
ID : 1
Format : AVC
Format/Info : Advanced Video Codec
Format profile : [email protected]
Format settings, CABAC : Yes
Format settings, ReFrames : 5 frames
Codec ID : V_MPEG4/ISO/AVC
Duration : 1h 16mn
Bit rate : 3 566 Kbps
Width : 1 280 pixels
Height : 720 pixels
Display aspect ratio : 16:9
Frame rate mode : Constant
Frame rate : 25.000 fps
Color space : YUV
Chroma subsampling : 4:2:0
Bit depth : 8 bits
Scan type : Progressive
Bits/(Pixel*Frame) : 0.155
Stream size : 1.91 GiB (88%)
Writing library : core 140 r2377 1ca7bb9
Encoding settings : cabac=1 / ref=5 / deblock=1:0:0 / analyse=0x3:0x113 / me=umh / subme=8 / psy=1 / psy_rd=1.00:0.00 / mixed_ref=1 / me_range=16 / chroma_me=1 / trellis=1 / 8x8dct=1 / cqm=0 / deadzone=21,11 / fast_pskip=1 / chroma_qp_offset=-2 / threads=12 / lookahead_threads=2 / sliced_threads=0 / nr=0 / decimate=1 / interlaced=0 / bluray_compat=0 / constrained_intra=0 / bframes=3 / b_pyramid=2 / b_adapt=2 / b_bias=0 / direct=3 / weightb=1 / open_gop=0 / weightp=2 / keyint=250 / keyint_min=25 / scenecut=40 / intra_refresh=0 / rc_lookahead=50 / rc=crf / mbtree=1 / crf=18.0 / qcomp=0.60 / qpmin=0 / qpmax=69 / qpstep=4 / ip_ratio=1.40 / aq=1:1.00
Language : English
Default : Yes
Forced : No

Audio #1
ID : 2
Format : AC-3
Format/Info : Audio Coding 3
Mode extension : CM (complete main)
Format settings, Endianness : Big
Codec ID : A_AC3
Duration : 1h 16mn
Bit rate mode : Constant
Bit rate : 192 Kbps
Channel count : 2 channels
Channel positions : Front: L R
Sampling rate : 48.0 KHz
Bit depth : 16 bits
Compression mode : Lossy
Stream size : 105 MiB (5%)
Title : UKR(UAVoice)
Language : Ukrainian
Default : No
Forced : Yes

Audio #2
ID : 3
Format : AC-3
Format/Info : Audio Coding 3
Mode extension : CM (complete main)
Format settings, Endianness : Big
Codec ID : A_AC3
Duration : 1h 16mn
Bit rate mode : Constant
Bit rate : 192 Kbps
Channel count : 6 channels
Original Channel count : 2 channels
Channel positions : Front: L R
Sampling rate : 48.0 KHz
Bit depth : 16 bits
Compression mode : Lossy
Stream size : 105 MiB (5%)
Title : ENG
Language : English
Default : No
Forced : No

Text #1
ID : 4
Format : UTF-8
Codec ID : S_TEXT/UTF8
Codec ID/Info : UTF-8 Plain Text
Title : ENG
Language : English
Default : Yes
Forced : No

Text #2
ID : 5
Format : UTF-8
Codec ID : S_TEXT/UTF8
Codec ID/Info : UTF-8 Plain Text
Title : UKR(WestUkraine)
Language : Ukrainian
Default : No
Forced : No
Скріншоти
















































За постер величезна подяка пану: bober-mober

Джерело: uavoice.com
Особиста оцінка: 10 - без зайвих вагань рекомендую всім!


Авторський реліз (завантажувати можна без реєстрації)
 Трекер:    Зареєстрований   

Завантажити / скачати серіал українською



відео для новачків



 Зареєстрований:   2013-11-28 07:07
 Розмір:   2.15 GB 
 Оцінка серіалу:   10/10 (Голосів: 18)
   
BOOGud 
VIP


З нами з: 06.03.12
Востаннє: 31.10.20
Повідомлень: 905

2013-12-14 23:24  
емм, тут тойво, реліз досі перевіряється
BMK12 
Відео Гуртом - підтримка та поширення
Відео Гуртом - підтримка та поширення


З нами з: 13.04.09
Востаннє: 27.11.20
Повідомлень: 3787

2013-12-28 17:31  
BOOGud написано:
720p 720

Одне тре прибрати як з заголовку повідомлення так і з заголовку теми.

Seriy100293 
VIP


З нами з: 17.08.11
Востаннє: 26.11.20
Повідомлень: 464

2014-01-03 12:18  
А різдвяний спецвипуск озвучуватимете?
Maryena 
Поважний учасник


З нами з: 08.05.08
Востаннє: 22.11.20
Повідомлень: 226

2014-01-05 10:25  
Seriy100293 написано:
А різдвяний спецвипуск озвучуватимете?


Думаю, що озвучимо - десь після Різдва візьмемося.

Seriy100293 
VIP


З нами з: 17.08.11
Востаннє: 26.11.20
Повідомлень: 464

2014-01-10 18:37  
Maryena
Чекаємо)

BOOGud 
VIP


З нами з: 06.03.12
Востаннє: 31.10.20
Повідомлень: 905

2014-01-14 02:12  
Seriy100293 написано:
Чекаємо)

та походу там ж байбаки мали б робити, нє?

Seriy100293 
VIP


З нами з: 17.08.11
Востаннє: 26.11.20
Повідомлень: 464

2014-01-18 14:56  
Цитата:
та походу там ж байбаки мали б робити, нє?

Ні, його ж ніхто не проплатив

Seriy100293 
VIP


З нами з: 17.08.11
Востаннє: 26.11.20
Повідомлень: 464

2014-04-08 20:20  
Я так розумію, різдвяний випуск вже не планується?
Maryena 
Поважний учасник


З нами з: 08.05.08
Востаннє: 22.11.20
Повідомлень: 226

2014-04-08 20:37  
Seriy100293 написано:
Я так розумію, різдвяний випуск вже не планується?


Ой, тяжке питання. Я поки все закинула і ніяк не можу відновити роботу (в мене є поважна півторамісячна причина Rolleyes (1) ) Тому обіцяти нічого не можу...

Seriy100293 
VIP


З нами з: 17.08.11
Востаннє: 26.11.20
Повідомлень: 464

2014-04-11 21:03  
Maryena
"Дуже жаль. Дуже, дуже шкода" (с) П. Глазовий
=)

don pedro 
Попереджень: 1
Попереджень: 1 


З нами з: 29.06.11
Востаннє: 27.11.20
Повідомлень: 18185

2014-04-12 20:58  
Maryena
Вітаю з поповненням родини.

Maryena 
Поважний учасник


З нами з: 08.05.08
Востаннє: 22.11.20
Повідомлень: 226

2014-04-14 11:29  
don pedro

Дякую Happy

Seriy100293 
VIP


З нами з: 17.08.11
Востаннє: 26.11.20
Повідомлень: 464

2014-04-26 18:47  
Maryena
Ух ти)) Вибачте, неуважно прочитав...) Я теж Вас вітаю! З'явилась нова порція щастя Wink (2)

Ваш часовий пояс: GMT + 2 Години

Нова тема   Відповісти