Доктор Хто: День Доктора / Doctor Who: The Day of the Doctor (2013) HDTV 720p Eng | sub Ukr

Нові коментарі

Нова тема   Відповісти
Автор Повідомлення
dr_stas 
Відео Гуртом - дизайнер
Відео Гуртом - дизайнер


З нами з: 21.07.09
Востаннє: 16.08.17
Повідомлень: 457

2013-11-25 00:56  
Доктор Хто: День Доктора / Doctor Who: The Day of the Doctor (2013) HDTV 720p Eng | sub Ukr

Доктор Хто: День Доктора / Doctor Who: The Day of the Doctor (2013) HDTV 720p Eng | sub Ukr


Жанр: комедія, фантастика, драма, сімейний, пригодницький
Країна: Великобританія



Кінокомпанія: BBC
Режисер: Нік Гарран
Актори: Мет Сміт(Matt Smith), Девід Теннант(David Tennant), Джон Хурт(John Hurt), Дженна Колеман(Jenna Coleman), Біллі Пайпер(Billie Piper) та інші.

Сюжет:
Доктор вирушає у свою найбільшу подорож у ювілейному спецвипуску, присвяченому 50- річчю. У 2013 році щось жахливе прокидається у Лондонській Національній Галереї; у 1562 смертельна змова назріває у Англії часів Єлизаветти; і десь у космосі древня битва досягає свого руйнівного завершення. Вся реальність опиняється під загрозою,коли небезпечне минуле Доктора повертається і починає переслідувати його.


Тривалість: 01:16:31
Якість:
Відео:
кодек:
розмір кадру: 1280 х 720
бітрейт: 3 839 кб/с

Аудіо:
мова: англійська
переклад: оригінал
кодек: 2.0
бітрейт: 192 кб/с

Субтитри:
мова: українська
переклад: West Ukraine
тип: програмні (м'які)
формат: *.srt

Info

Цитата:
General
Unique ID : 138707921689153743912071428748844700466 (0x685A2C8AA3F7964A2C0FB64EE9439332)
Complete name : D:\Movie\Doctor_Who_2013_The_Day_of_the_Doctor.720p_HDTV\Doctor_Who_2013_The_Day_of_the_Doctor.720p_HDTV.
Format :
Format version : Version 2
File size : 2.05 GiB
Duration : 1h 16mn
Overall bit rate : 3 839 Kbps
Writing application : Larry Sanders
Writing library : Larry Sanders

Video
ID : 1
Format : AVC
Format/Info : Advanced Video Codec
Format profile : [email protected]
Format settings, CABAC : Yes
Format settings, ReFrames : 5 frames
Codec ID : V_MPEG4/ISO/AVC
Duration : 1h 16mn
Bit rate : 3 571 Kbps
Width : 1 280 pixels
Height : 720 pixels
Display aspect ratio : 16:9
Frame rate : 25.000 fps
Color space : YUV
Chroma subsampling : 4:2:0
Bit depth : 8 bits
Scan type : Progressive
Bits/(Pixel*Frame) : 0.155
Stream size : 1.91 GiB (93%)
Writing library : core 140 r2377 1ca7bb9
Encoding settings : cabac=1 / ref=5 / deblock=1:0:0 / analyse=0x3:0x113 / me=umh / subme=8 / psy=1 / psy_rd=1.00:0.00 / mixed_ref=1 / me_range=16 / chroma_me=1 / trellis=1 / 8x8dct=1 / cqm=0 / deadzone=21,11 / fast_pskip=1 / chroma_qp_offset=-2 / threads=12 / lookahead_threads=2 / sliced_threads=0 / nr=0 / decimate=1 / interlaced=0 / bluray_compat=0 / constrained_intra=0 / bframes=3 / b_pyramid=2 / b_adapt=2 / b_bias=0 / direct=3 / weightb=1 / open_gop=0 / weightp=2 / keyint=250 / keyint_min=25 / scenecut=40 / intra_refresh=0 / rc_lookahead=50 / rc=crf / mbtree=1 / crf=18.0 / qcomp=0.60 / qpmin=0 / qpmax=69 / qpstep=4 / ip_ratio=1.40 / aq=1:1.00
Language : English

Audio
ID : 2
Format : AC-3
Format/Info : Audio Coding 3
Mode extension : CM (complete main)
Codec ID : A_AC3
Duration : 1h 16mn
Bit rate mode : Constant
Bit rate : 192 Kbps
Channel(s) : 2 channels
Channel positions : Front: L R
Sampling rate : 48.0 KHz
Bit depth : 16 bits
Compression mode : Lossy
Stream size : 105 MiB (5%)
Language : English


Скріншоти







Посилання на інші релізи по Доктору
Класичний Доктор Хто (Сезон 1, Серії 1-13) / Doctor Who Classic (Season 1, Episodes 1-13) (1963) Eng | sub Ukr
Класичний Доктор Хто (Сезон 12, Серії 1-8) / Classic Doctor Who (Season 12, Episodes 1-8) (1974-1975)
Класичний Доктор Хто (Сезон 19, Серії 1-5) / Classic Doctor Who (Season 12, Episodes 1-5) (1982)
Доктор Хто. Фільм / Doctor Who. The movie (1996) Eng | sub Ukr
Доктор Ху (Сезон 1) / Doctor Who (Season 1) (2005) Ukr/Eng
Доктор Хто (Сезон 1, Серія 14) / Doctor Who (Season 1, Series 14) (2005) 720p Ukr/Eng
Доктор Ху (Сезон 2) / Doctor Who (Season 2) (2006) Ukr/Eng
Доктор Хто (Сезон 3) / Doctor Who (Season 3) (2007) Ukr/Eng
Доктор Хто: У пошуках Безкінечності / Doctor Who: The Infinite Quest (2007) Eng | sub Ukr
Доктор Хто (4 сезон епізод 00) /Doctor Who (season 4 episode 00) (2007) Eng | Sub Ukr
Доктор Хто (Сезон 4) / Doctor Who (Season 4) (2008) Ukr/Eng
Доктор Хто 4 сезон спецвипуски/ Doctor Who season 4 specials (2005) Eng | sub Ukr
Доктор Хто: "Кінець Часу" Частина 1 / Doctor Who Specials: "The End of Time" Part 1 (2009) Ukr/Eng | Sub Ukr/Eng
Доктор Хто (Сезон 6, серія 1) / Doctor Who (Season 6, episode 1) (2011)
Доктор Хто pіздвяний спецвипуск. Сніговики / Doctor Who Christmas Special. The Snowmen (2012) Eng | sub Ukr
Доктор Хто Різдвяний Спецвипуск. Сніговики / Doctor Who Christmas Special. The Snowmen (2012) Ukr/Eng | sub Ukr
Доктор Хто (Сезон 7, серії 1-5, 7-9) / Doctor Who (Season 7, episodes 1-5, 7-9) (2012-2013) Ukr/Eng | sub Ukr
Доктор Хто (Сезон 7, серії 6-13 + різдвяний випуск) / Doctor Who (Season 7, episodes 6-13) (2012-2013) Ukr/Eng


Джерело:
Особиста оцінка: 10 - без зайвих вагань рекомендую всім!


 Трекер:    Зареєстрований   

Завантажити / скачати серіал українською



відео для новачків



 Зареєстрований:   2013-11-25 00:56
 Розмір:   2.05 GB 
 Оцінка серіалу:   9.1/10 (Голосів: 11)
   
kino. 
Модератор відео


З нами з: 27.06.10
Востаннє: 16.08.17
Повідомлень: 2898

2013-11-25 17:56  
Додайте звіт звіт Info.
Скріншоти повинні бути у форматі .png

KaMiNsKy 
Новенький


З нами з: 22.06.11
Востаннє: 26.07.17
Повідомлень: 1

2013-11-26 00:58  
ГЕНІАЛЬНО!!! Cry (2) таке враження, що сам доктор писав цей сцинарій!!! А може він всетаки існує!?
Ваш часовий пояс: GMT + 2 Години

Нова тема   Відповісти