Завантажити та скачати торренти українською


Дежа Вю / Deja vu (2006) AVC

Нові коментарі

Нова тема   Відповісти
Автор Повідомлення
Drool 
VIP


З нами з: 17.04.10
Востаннє: 25.02.17
Повідомлень: 1298

2013-11-16 18:09  
Дежа Вю / Deja vu (2006) AVC

Жанр: фантастика, бойовик, трилер
Країна: США, Велика Британія



Кінокомпанія: Jerry Bruckheimer Films, Scott Free Productions, Touchstone Pictures
Режисер: Тоні Скотт
Актори: Дензіл Вашингтон, Вел Кілмер, Адам Голдберг, Паула Паттон, Джеймс Кевізел, Елден Хенсон, Еріка Олександр, Брюс Грінвуд, Річ Хатчмен, Метт Кревен

Сюжет:
Кожний з нас хоч би раз в житті переживав дивне відчуття дежа вю - спалах в підсвідомості, коли здається, що ти вже десь бачив людину, з якою тільки що познайомився, або бував в місці, куди насправді потрапив вперше в житті. А що коли насправді це попередження минулого або підказка з майбутнього? Думаєш, тобі це здається? Обернися... і подивися ще раз!…


Тривалість: 02:06:26
Якість: AVC
Відео:
кодек:
розмір кадру: 1032x430
бітрейт: 2398 кб/с

Аудіо:
мова: українська
переклад: професійний дубльований
кодек: 5.1
бітрейт: 384 кб/с

Джерело звуку: доріжку взято з роздачі пана LIONN
Info
General
Unique ID : 259830270895897200666763094221410473953 (0xC3797D6B3E7F5D850C088659DD7B17E1)
Complete name : /mnt/router/Torrents/Deja.Vu.2006.Ukr.Dub..AVC.
Format :
File size : 2.45 GiB
Duration : 2h 6mn
Overall bit rate : 2 777 Kbps
Movie name : Дежа вю / Deja Vu (2006) AVC | Ukr Dub | rip by potroks
Encoded date : UTC 2010-02-22 21:41:31
Writing application : mkvmerge v6.1.0 ('Old Devil') built on Apr 14 2013 12:26:22
Writing library : libebml v1.3.0 + libmatroska v1.4.0

Video
ID : 1
Format : AVC
Format/Info : Advanced Video Codec
Format profile : [email protected]
Format settings, CABAC : Yes
Format settings, ReFrames : 10 frames
Codec ID : V_MPEG4/ISO/AVC
Duration : 2h 6mn
Bit rate : 2 398 Kbps
Width : 1 032 pixels
Height : 430 pixels
Display aspect ratio : 2.40:1
Frame rate : 23.976 fps
Color space : YUV
Chroma subsampling : 4:2:0
Bit depth : 8 bits
Scan type : Progressive
Bits/(Pixel*Frame) : 0.225
Stream size : 2.06 GiB (84%)
Title : Дежа вю / Deja Vu (2006) AVC | Ukr Dub | rip by potroks
Writing library : core 130 r2273 b3065e6
Encoding settings : cabac=1 / ref=10 / deblock=1:-2:-2 / analyse=0x3:0x133 / me=umh / subme=11 / psy=1 / psy_rd=1.09:0.01 / mixed_ref=1 / me_range=32 / chroma_me=1 / trellis=2 / 8x8dct=1 / cqm=0 / deadzone=21,11 / fast_pskip=0 / chroma_qp_offset=-3 / threads=9 / lookahead_threads=6 / sliced_threads=0 / nr=0 / decimate=0 / interlaced=0 / bluray_compat=0 / constrained_intra=0 / bframes=11 / b_pyramid=2 / b_adapt=2 / b_bias=0 / direct=3 / weightb=1 / open_gop=0 / weightp=2 / keyint=240 / keyint_min=23 / scenecut=40 / intra_refresh=0 / rc_lookahead=60 / rc=2pass / mbtree=0 / bitrate=2398 / ratetol=1.0 / qcomp=0.70 / qpmin=0 / qpmax=69 / qpstep=4 / cplxblur=20.0 / qblur=0.5 / vbv_maxrate=20000 / vbv_bufsize=20000 / nal_hrd=none / ip_ratio=1.30 / pb_ratio=1.25 / aq=1:0.80

Audio
ID : 2
Format : AC-3
Format/Info : Audio Coding 3
Mode extension : CM (complete main)
Codec ID : A_AC3
Duration : 2h 6mn
Bit rate mode : Constant
Bit rate : 384 Kbps
Channel(s) : 6 channels
Channel positions : Front: L C R, Side: L R, LFE
Sampling rate : 48.0 KHz
Bit depth : 16 bits
Compression mode : Lossy
Stream size : 347 MiB (14%)
Title : Рідна мова (Dub | 5.1 @ 384 kbps)
Language : Ukrainian
Скріншоти





Джерело: відеоряд взято з ріпу
Особиста оцінка: 10 - без зайвих вагань рекомендую всім!


 Трекер:    Зареєстрований   

Завантажити / скачати фільм українською



відео для новачків



 Зареєстрований:   2013-11-16 18:09
 Розмір:   2.45 GB 
 Оцінка фільму:   9.7/10 (Голосів: 38)
   
Інші релізи
   Дежа Вю / Deja vu (2006) Remux 1080p Ukr/Eng | Sub Ukr/Eng Alex60  2 / 1   23.46 GB   2015-10-25 20:00 
   Дежа Вю / Deja vu (2006) 720p Ukr/Eng|Sub Ukr/Eng SuperContik  9 / 0   6.76 GB   2011-02-12 17:27 
   Дежа Вю / Deja vu (2006) LIONN  6 / 0   2.18 GB   2009-12-25 16:04 
zaika 
VIP


З нами з: 01.07.12
Востаннє: 26.02.17
Повідомлень: 981

2014-03-13 19:40  
Це ж треба було таке нафантазувати. А от озвучка нікудишня. Ледве можна розібрати про що говорять. Тай голоси якісь непрофесійні. 8/10.
xz_SLIM_zx 
VIP


З нами з: 15.03.12
Востаннє: 22.02.17
Повідомлень: 355

2014-10-28 19:32  
До кінця так і не був переконаний, що це Вашингтон. За 8 років він сильно постарів чи що, хоча в тому ж Американському Гангстері упізнав його враз...ну нехай
Фільм посередній. Надто багато вони нафантазували як для фільму, де крім чудо апарату більше немає нічого такого надприроднього чи точніше для нашого часу надприроднього))
Автору уклін та подяка
7/10

роман xa 
Свій


З нами з: 03.03.13
Востаннє: 26.02.17
Повідомлень: 127

2014-10-31 22:58  
Чудовий фільм , переглядаю уже втретє... та й не про фантастику тут річ.
380967307585 
Новенький


З нами з: 29.04.14
Востаннє: 10.11.14
Повідомлень: 1

2014-11-10 11:02  
Дуже класний фільм. Як на мене добре, що не стали фантазувати про інші атрибути майбутнього часу - адже це цілком може бути і в наший час. Я вже втомилася від фільмів "з майбутнього", де все літає, стрибає і блимає. Цього цілком досить, щоб не бути плагіатом і не перевантажити свідомість глядача. Сюжет дуже захоплюючий.
andju 
Частий відвідувач


З нами з: 30.07.12
Востаннє: 25.02.17
Повідомлень: 28

2014-11-12 22:39  
фільм крутий!Рекомендую для перегляду!)9 з10 .
Ваш часовий пояс: GMT + 2 Години

Нова тема   Відповісти