Вбий мене / You Kill Me (2007) Remux 1080p Ukr/Eng | sub Eng

Нові коментарі

Нова тема   Відповісти
Автор Повідомлення
urij546724 
Відео Гуртом - фільмокрай
Відео Гуртом - фільмокрай


З нами з: 16.03.10
Востаннє: 17.08.17
Повідомлень: 5219

2013-11-16 10:14  
Вбий мене / You Kill Me (2007) Remux Ukr/Eng | sub Eng



Жанр: комедія, кримінальний, романтичний, трилер
Країна: США



Кіностудія / кінокомпанія: Bipolar Pictures, Carol Baum Productions, Code Entertainment
Режисер: Джон Дал (John Dahl)
Актори: Бен Кінгслі (Ben Kingsley), Тіа Леоні (Téa Leoni), Люк Вілсон (Luke Wilson), Деніс Фаріна (Dennis Farina), Філіп Бейкер Холл (Philip Baker Hall), Білл Пуллман (Bill Pullman), Маркус Томас (Marcus Thomas), Скотт Хейндл (Scott Heindl)...

Сюжет:
Френк - найманий вбивця мафії. Одного разу він круто напився і проспав дуже важливе завдання. Твердо вирішивши «зав'язати», герой починає відвідувати курси анонімних алкоголіків. У Сан-Франциско, куди його засилають на лікування, Френк зустрів таку ж самотню душу і між ними зароджується кохання. Однак нагадує про себе старе замовлення - не знищений ворог Френкі погрожує його близьким. Адже мерзотний тип - його майбутня жертва - захопив владу в місті, і ситуація вийшла з-під контролю. Френкі вирішує розібратися з вискочкою. Наречена героя вирішила таємно «допомогти» йому, і в результаті народжується своєрідний кримінальний дует...
Media info
General
Unique ID : 180856355266252270866821679088967882797 (0x880FAAC215BE8BC6B257A8EE8254182D)
Complete name : E:\HD1\You Kill Me (2007) [ukr_OK_eng_AC3_5.1_sub eng] Remux [Hurtom] by urij546724.
Format :
Format version : Version 2
File size : 16.9 GiB
Duration : 1h 32mn
Overall bit rate : 26.1 Mbps
Movie name : You Kill Me (2007) [ukr_OK_eng_AC3_5.1_sub eng] Remux [Hurtom] by urij546724
Encoded date : UTC 2013-11-15 19:13:59
Writing application : mkvmerge v2.9.7 ('Tenderness') built on Jul 1 2009 18:43:35
Writing library : libebml v0.7.7 + libmatroska v0.8.1

Video
ID : 1
Format : VC-1
Format profile : [email protected]
Codec ID : WVC1
Codec ID/Hint : Microsoft
Duration : 1h 32mn
Bit rate : 24.3 Mbps
Width : 1 920 pixels
Height : 1 080 pixels
Display aspect ratio : 16:9
Frame rate : 23.976 fps
Chroma subsampling : 4:2:0
Bit depth : 8 bits
Scan type : Progressive
Compression mode : Lossy
Bits/(Pixel*Frame) : 0.489
Stream size : 15.7 GiB (93%)
Title : You Kill Me (2007) [ukr_OK_eng_AC3_5.1_sub eng] Remux [Hurtom] by urij546724
Language : English
Default : Yes
Forced : No

Audio #1
ID : 2
Format : AC-3
Format/Info : Audio Coding 3
Mode extension : CM (complete main)
Format settings, Endianness : Big
Codec ID : A_AC3
Duration : 1h 32mn
Bit rate mode : Constant
Bit rate : 640 Kbps
Channel(s) : 6 channels
Channel positions : Front: L C R, Side: L R, LFE
Sampling rate : 48.0 KHz
Bit depth : 16 bits
Compression mode : Lossy
Stream size : 424 MiB (2%)
Title : Українська доріжка
Language : Ukrainian
Default : Yes
Forced : No

Audio #2
ID : 3
Format : AC-3
Format/Info : Audio Coding 3
Mode extension : C (commentary)
Format settings, Endianness : Big
Codec ID : A_AC3
Duration : 1h 32mn
Bit rate mode : Constant
Bit rate : 640 Kbps
Channel(s) : 6 channels
Channel positions : Front: L C R, Side: L R, LFE
Sampling rate : 48.0 KHz
Bit depth : 16 bits
Compression mode : Lossy
Stream size : 424 MiB (2%)
Title : Оригінальна доріжка
Language : English
Default : No
Forced : No

Text
ID : 4
Format : UTF-8
Codec ID : S_TEXT/UTF8
Codec ID/Info : UTF-8 Plain Text
Title : Англійські субтитри
Language : English
Default : Yes
Forced : No

Menu
00:00:00.000 : :00:00:00.000
00:08:10.406 : :00:08:10.406
00:13:27.764 : :00:13:27.764
00:19:49.605 : :00:19:49.605
00:29:24.095 : :00:29:24.095
00:34:55.425 : :00:34:55.425
00:40:21.085 : :00:40:21.085
00:45:59.047 : :00:45:59.047
00:51:47.061 : :00:51:47.061
00:55:43.547 : :00:55:43.547
01:06:08.338 : :01:06:08.338
01:13:05.296 : :01:13:05.296
01:17:18.675 : :01:17:18.675
01:23:28.461 : :01:23:28.461
01:28:15.789 : :01:28:15.789
Тривалість: 01:32:38
Якість:
Відео:
кодек:
розмір кадру: 1920 х 1080
бітрейт: ~ 24.3 мб/с
частота кадрів: 23.976 к/с (fps)

Аудіо #1:
мова: українська
переклад: двоголосий закадровий
кодек: 5.1
бітрейт: 640 кб/с
запис звуку з каналу: ОК.

Аудіо #2:
мова: англійська
переклад: оригінал
кодек: 5.1
бітрейт: 640 кб/с

Субтитри:
мова: англійська
тип: програмні (м'які)
формат: *.srt

Скріншоти:





Трейлер
Семпл
Джерело 1_________Джерело 2_________Джерело 3_________Джерело 4_________Джерело 5_________Джерело 6
У випадку, якщо з усіх джерел семпл видалять, прохання повідомити мені у ПРИВАТ


Подяка:

1. Пану Technomate та Пану urij546724 за запис звуку з ТБ.
2. Пану D800 за українізацію постера.


Реліз створено:

Особиста оцінка: Ще не дивився.


Золотий реліз (завантажене не впливає на рейтинг)
 Трекер:    Зареєстрований   

Завантажити / скачати фільм українською



відео для новачків



 Зареєстрований:   2013-11-16 16:41
 Розмір:   16.91 GB 
 Оцінка фільму:   5.6/10 (Голосів: 7)
 Прохання залишати коментарі і не тікати з роздачі.
   
Інші релізи
   Вбий мене / You Kill Me (2007) 720p Ukr/Eng | sub Eng Sem1309  0 / 0   4.71 GB   2014-08-17 13:51 
   Вбий мене / You Kill Me (2007) Ukr/Eng urij546724  2 / 0   2 GB   2013-11-16 20:38 
bot 
робот


З нами з: 30.09.07
Востаннє: 26.05.05
Повідомлень: 17364

2016-03-24 22:21  
Тему перенесено з Фільми в HD до форуму Архів відео

Причина перенесення: Останній раз роздавалося urij546724 (2014-12-11)
igor911

3a6a6axyc 
Новенький


З нами з: 26.11.16
Востаннє: 18.08.17
Повідомлень: 8

2016-12-19 15:29  
чи буде роздача ?
igor911 
Відео Гуртом
Відео Гуртом


З нами з: 18.01.08
Востаннє: 18.08.17
Повідомлень: 7278

2016-12-19 18:04  
3a6a6axyc, буде, якщо завантажиш з екса http://www.ex.ua/80377269 і підтримаєш цей реліз.
kryk-v.ya. 
Свій


З нами з: 14.02.14
Востаннє: 18.08.17
Повідомлень: 120

2016-12-19 20:15  
пробуємо...
igor911 
Відео Гуртом
Відео Гуртом


З нами з: 18.01.08
Востаннє: 18.08.17
Повідомлень: 7278

2016-12-19 21:35  
kryk-v.ya., дякую, що відгукнувся.
kryk-v.ya. 
Свій


З нами з: 14.02.14
Востаннє: 18.08.17
Повідомлень: 120

2016-12-19 21:46  
igor911
я це зробив із задоволенням...

3a6a6axyc 
Новенький


З нами з: 26.11.16
Востаннє: 18.08.17
Повідомлень: 8

2016-12-20 00:23  
kryk-v.ya. Д Я К У Ю

Додано через 4 хвилини 12 секунд:

igor911
дякую

lex 
Відео Гуртом - підтримка та поширення
Відео Гуртом - підтримка та поширення


З нами з: 25.12.07
Востаннє: 16.08.17
Повідомлень: 577

2016-12-28 23:33  
ап темі. поновив роздачу
bot 
робот


З нами з: 30.09.07
Востаннє: 26.05.05
Повідомлень: 17364

2016-12-28 23:42  
Тему перенесено з Архів відео до форуму Фільми в HD


igor911

Ваш часовий пояс: GMT + 2 Години

Нова тема   Відповісти