Пригоди Мерліна (Сезон 4) / Merlin (Season 4) (2011) 720p Ukr/Eng

Нові коментарі

Нова тема   Відповісти
Автор Повідомлення
qwerjar 
Свій


З нами з: 09.07.10
Востаннє: 21.02.19
Повідомлень: 129

2013-11-11 06:41  
Пригоди Мерліна (Сезон 4) / Merlin (Season 4) (2011) 720p Ukr/Eng

Пригоди Мерліна (Сезон 4) / Merlin (Season 4) (2011) 720p Ukr/Eng


Жанр: драма, сімейний, фентезі
Країна: Великобританія


Кінокомпанія / телеканал: Shine, BBC Wales
Режисер: Джуліан Джонс, Джейк Мічі, Джонні Капс, Джуліан Мерфі
Актори/ролі озвучують: Колін Морган, Бредлі Джеймс, Ентоні Хед, Річард Вілсон, Енжел Колбі, Кеті МакГрат, Джон Хьорт, Руперт Янг, Майкл Кронін та ін.

Сюжет:
Сюжет: Королівство Камелот тоне у хаосі. Чародійство сіє смуту серед людей. Новий король Утер Пендрагон забороняє чаклунство під страхом смерті, виганяє чарівників і вбиває всіх драконів, милуючи лише одного. Через 20 років у Камелот прибуває Мерлін, житель маленького селища, народжений із здібностями чарівника. Він стає помічником придворного лікаря Гаюса, який допомагає йому знайти призначення його дару...


Тривалість: 1 серія: 43 хвилини
Перелік серій
01 епізод

The Darkest Hour part 1 / Найтемніший час ч.1

02 епізод

The Darkest Hour part 2 / Найтемніший час ч.2

03 епізод

The Wicked Day / Злий день

04 епізод

Aithusa /Асіза

05 епізод

His Father's Son / Син свого батька

06 епізод

A Servant of Two Masters / Слуга двох панів

07 епізод

The Secret Sharer / Розкриття таємниці

08 епізод

Lamia / Ламія

09 епізод

Lancelot du Lac / Ланцелот Озерний

10 епізод

A Herald of the New Age / Провісник нової ери

11 епізод

The Hunters Heart / Серце мисливця

12 епізод

The Sword in the Stone Part 1 / Меч в камені, ч.1

13 епізод

The Sword in the Stone Part 2 / Меч в камені, ч.2
Якість:
Відео:
кодек: Н.264
розмір кадру: 1280 х 720
бітрейт: 4137 кб/с

Аудіо # 1:
мова: українська
переклад: багатоголосий закадровий
кодек: 2.0
бітрейт: 640 кб/с

Аудіо # 2:
мова: англійська
переклад: оригінал
кодек: 2.0
бітрейт: 640 кб/с

Джерело озвучення:


Info

General
Unique ID : 185606257674367858574507020949181079222 (0x8BA277071956B2F7B1FB124647169EB6)
Complete name : H:\Films\Series\Merlin (season 4) 2+2_BDRip_720p\Merlin.s04e01..720.ukr.eng.
Format :
Format version : Version 4 / Version 2
File size : 1.59 GiB
Duration : 43mn 35s
Overall bit rate : 5 224 Kbps
Encoded date : UTC 2013-11-11 01:31:35
Writing application : v6.4.1 ('Omega Point') built on Sep 16 2013 22:05:10
Writing library : libebml v1.3.0 + v1.4.1

Video
ID : 1
Format : AVC
Format/Info : Advanced Video Codec
Format profile : [email protected]
Format settings, CABAC : Yes
Format settings, ReFrames : 5 frames
Codec ID : V_MPEG4/ISO/AVC
Duration : 43mn 35s
Bit rate : 4 137 Kbps
Width : 1 280 pixels
Height : 720 pixels
Display aspect ratio : 16:9
Frame rate : 25.000 fps
Color space : YUV
Chroma subsampling : 4:2:0
Bit depth : 8 bits
Scan type : Progressive
Bits/(Pixel*Frame) : 0.180
Stream size : 1.23 GiB (77%)
Writing library : core 120 r2145 748fe16
Encoding settings : cabac=1 / ref=5 / deblock=1:0:0 / analyse=0x3:0x133 / me=umh / subme=7 / psy=1 / psy_rd=1.00:0.00 / mixed_ref=1 / me_range=16 / chroma_me=1 / trellis=1 / 8x8dct=1 / cqm=0 / deadzone=21,11 / fast_pskip=0 / chroma_qp_offset=-2 / threads=12 / sliced_threads=0 / nr=0 / decimate=1 / interlaced=0 / bluray_compat=0 / constrained_intra=0 / bframes=3 / b_pyramid=2 / b_adapt=2 / b_bias=0 / direct=3 / weightb=1 / open_gop=0 / weightp=2 / keyint=250 / keyint_min=25 / scenecut=40 / intra_refresh=0 / rc_lookahead=50 / rc=2pass / mbtree=1 / bitrate=4137 / ratetol=1.0 / qcomp=0.60 / qpmin=0 / qpmax=69 / qpstep=4 / cplxblur=20.0 / qblur=0.5 / ip_ratio=1.40 / aq=1:1.00
Language : English
Default : No
Forced : No

Audio #1
ID : 2
Format : AC-3
Format/Info : Audio Coding 3
Mode extension : CM (complete main)
Format settings, Endianness : Big
Codec ID : A_AC3
Duration : 43mn 35s
Bit rate mode : Constant
Bit rate : 640 Kbps
Channel(s) : 2 channels
Channel positions : Front: L R
Sampling rate : 48.0 KHz
Bit depth : 16 bits
Compression mode : Lossy
Stream size : 200 MiB (12%)
Title : 2+2 [Ukrainian] 2 ch 640 kbps
Language : Ukrainian
Default : Yes
Forced : No

Audio #2
ID : 3
Format : AC-3
Format/Info : Audio Coding 3
Mode extension : CM (complete main)
Format settings, Endianness : Big
Codec ID : A_AC3
Duration : 43mn 35s
Bit rate mode : Constant
Bit rate : 640 Kbps
Channel(s) : 2 channels
Channel positions : Front: L R
Sampling rate : 48.0 KHz
Bit depth : 16 bits
Compression mode : Lossy
Stream size : 200 MiB (12%)
Title : [English] 2 ch 640 kbps
Language : English
Default : No
Forced : No


Скріншоти




У 10 епізоді перші 22 хвилини озвучені Baiba&Ko.
Запис з ТБ та синхронізація звуку: qwerjar
Особиста оцінка: 10 - без зайвих вагань рекомендую всім!



Бронзовий реліз (на рейтинг впливає 75% завантаженого)
 Трекер:    Зареєстрований   

Завантажити / скачати серіал українською



відео для новачків



 Зареєстрований:   2014-03-21 21:11
 Розмір:   21.42 GB 
 Оцінка серіалу:   9/10 (Голосів: 10)
   
Goratsio 
Свій


З нами з: 19.12.10
Востаннє: 18.02.19
Повідомлень: 106

2013-11-21 19:36  
класний серіал!
Дуже мені сподобася)

Seriy100293 
VIP


З нами з: 17.08.11
Востаннє: 20.02.19
Повідомлень: 437

2013-12-03 14:10  
Бажано, щоб 5 сезон записали
qwerjar 
Свій


З нами з: 09.07.10
Востаннє: 21.02.19
Повідомлень: 129

2013-12-03 19:38  
Seriy100293 написано:
Бажано, щоб 5 сезон записали

Я хочу записати і 5 сезон, але не знаю, чи показуватимуть... А якщо будуть - то я з радістю. Wink (2)
Хоча в телепрограммі написано що будуть - лишилось тільки зачекати.

PrimarH_GNOB 
Новенький


З нами з: 18.11.13
Востаннє: 30.07.14
Повідомлень: 3

2013-12-04 03:28  
Дякую!
bot 
робот


З нами з: 30.09.07
Востаннє: 26.05.05
Повідомлень: 20700

2016-03-24 00:43  
Тему перенесено з Серіали в HD до форуму Архів відео

Причина перенесення: Останній раз роздавалося qwerjar (2014-06-12)
igor911

XXX) 
VIP


З нами з: 10.10.13
Востаннє: 01.02.19
Повідомлень: 386

2016-06-15 07:50  
ех...думав в хд подивлюсь якості
anibyl 
Новенький


З нами з: 02.12.14
Востаннє: 27.06.18
Повідомлень: 11

2017-01-06 15:54  
Станьте на роздачу, будь ласка Happy
bot 
робот


З нами з: 30.09.07
Востаннє: 26.05.05
Повідомлень: 20700

2017-02-08 12:39  
Тему перенесено з Архів відео до форуму Серіали в HD

Причина перенесення: Відновлено роздачу з ex.ua
igor911

igor911 
Відео Гуртом
Відео Гуртом


З нами з: 18.01.08
Востаннє: 20.02.19
Повідомлень: 12054

2017-02-08 12:40  
"Золото" на тиждень
Ваш часовий пояс: GMT + 2 Години

Нова тема   Відповісти