Університет монстрів / Monsters University (2013) 3D 1080p Ukr/Eng | Sub Ukr/Eng [Half OverUnder]

Нові коментарі

Нова тема   Відповісти
Автор Повідомлення
Anonymous 







2013-11-10 15:08  
Університет монстрів / Monsters University (2013) 3D 1080p Ukr/Eng | Sub Ukr/Eng
[Half OverUnder]


Жанр: анімація, пригодницький, комедія, сімейний, фентезі
Країна: США



Кінокомпанія: Walt Disney Pictures, Pixar Animation Studios
Режисер: Ден Скенлон / Dan Scanlon
Ролі озвучили: Джон Ґудмен / John Goodman, Біллі Крістал / Billy Crystal, Стів Бушемі / Steve Buscemi, Гелен Міррен / Helen Mirren, Пітер Сон / Peter Sohn, Джоель Мюррей / Joel Murray, Шон Гейс / Sean Hayes, Дейв Фолі / Dave Foley, Чарлі Дей / Charlie Day, Альфред Моліна / Alfred Molina

Сюжет:
Майк і Саллі, герої відомої майже кожному анімаційної стрічки "Корпорація монстрів" не завжди були друзями. Цей мультфільм розповість, як ця дивна парочка зав'язала знайомство. Вперше вони познайомилися ще в коледжі, куди пішли вивчати вищі аспекти по Ляканню дітей. Вони були повною протилежністю один одному і навіть ворогували між собою, поки їх не звела спільна робота по "диплому", яка не обійшлася без пригод. Саме спільне рішення проблеми і здружило невротика Майка і здорованя Саллі.

Тривалість: 01:43:47
Якість: 3D 1080p (Monsters University 2013 1080p 3D BluRay Half-OU -HDMaNiAcS)
Відео:
кодек:
розмір кадру: 1920 х 1080
бітрейт: 11.5 Мб/с
тип 3D: Half OverUnder / Вертикальна стереопара

Аудіо # 1:
мова: українська
переклад: професійний дубльований
кодек: 5.1
бітрейт: 384 кб/с

Аудіо # 2:
мова: англійська
переклад: оригінал
кодек: 5.1
бітрейт: 1536 кб/с

Субтитри:
мова: українська
тип: програмні
формат: *.srt

Субтитри:
мова: англійська
тип: пререндерні
формат: *.pgs
Скріншоти




Info
General
Unique ID : 196276207650330474461431317130511201098 (0x93A96C2D72399E5DA9F32EF01AFD334A)
Complete name : G:\Monsters University (2013) [Ukr,Eng] 3D 1080p [Hurtom].
Format :
Format version : Version 4 / Version 2
File size : 9.71 GiB
Duration : 1h 43mn
Overall bit rate : 13.4 Mbps
Encoded date : UTC 2013-11-10 11:19:03
Writing application : mkvmerge v6.3.0 ('You can't stop me!') built on Jun 28 2013 20:09:41
Writing library : libebml v1.3.0 + libmatroska v1.4.0

Video
ID : 1
Format : AVC
Format/Info : Advanced Video Codec
Format profile : [email protected]
Format settings, CABAC : Yes
Format settings, ReFrames : 4 frames
Codec ID : V_MPEG4/ISO/AVC
Duration : 1h 43mn
Bit rate : 11.5 Mbps
Width : 1 920 pixels
Height : 1 080 pixels
Display aspect ratio : 16:9
Frame rate mode : Constant
Frame rate : 23.976 fps
Color space : YUV
Chroma subsampling : 4:2:0
Bit depth : 8 bits
Scan type : Progressive
Bits/(Pixel*Frame) : 0.231
Stream size : 8.15 GiB (84%)
Title : Monsters University 2013 1080p 3D BluRay Half-OU -HDMaNiAcS
Writing library : core 133 r2334 a3ac64b
Encoding settings : cabac=1 / ref=4 / deblock=1:-2:-2 / analyse=0x3:0x113 / me=tesa / subme=11 / psy=1 / psy_rd=0.90:0.00 / mixed_ref=1 / me_range=32 / chroma_me=1 / trellis=2 / 8x8dct=1 / cqm=0 / deadzone=21,11 / fast_pskip=0 / chroma_qp_offset=-2 / threads=12 / lookahead_threads=2 / sliced_threads=0 / nr=0 / decimate=0 / interlaced=0 / bluray_compat=0 / constrained_intra=0 / bframes=8 / b_pyramid=2 / b_adapt=2 / b_bias=0 / direct=3 / weightb=1 / open_gop=0 / weightp=2 / keyint=250 / keyint_min=23 / scenecut=40 / intra_refresh=0 / rc_lookahead=40 / rc=2pass / mbtree=0 / bitrate=11500 / ratetol=1.0 / qcomp=0.60 / qpmin=10 / qpmax=69 / qpstep=4 / cplxblur=20.0 / qblur=0.5 / vbv_maxrate=40000 / vbv_bufsize=30000 / nal_hrd=none / frame-packing=4 / ip_ratio=1.30 / pb_ratio=1.15 / aq=1:0.80
Language : English
Default : Yes
Forced : No

Audio #1
ID : 2
Format : AC-3
Format/Info : Audio Coding 3
Mode extension : CM (complete main)
Format settings, Endianness : Big
Codec ID : A_AC3
Duration : 1h 43mn
Bit rate mode : Constant
Bit rate : 384 Kbps
Channel(s) : 6 channels
Channel positions : Front: L C R, Side: L R, LFE
Sampling rate : 48.0 KHz
Bit depth : 16 bits
Compression mode : Lossy
Stream size : 285 MiB (3%)
Title : Професійний дубльований
Language : Ukrainian
Default : Yes
Forced : No

Audio #2
ID : 3
Format :
Format/Info : Digital Theater Systems
Mode : 16
Format settings, Endianness : Big
Codec ID : A_DTS
Duration : 1h 43mn
Bit rate mode : Constant
Bit rate : 1 509 Kbps
Channel(s) : 6 channels
Channel positions : Front: L C R, Side: L R, LFE
Sampling rate : 48.0 KHz
Bit depth : 24 bits
Compression mode : Lossy
Stream size : 1.09 GiB (11%)
Title : Оригінал
Language : English
Default : No
Forced : No

Text #1
ID : 4
Format : UTF-8
Codec ID : S_TEXT/UTF8
Codec ID/Info : UTF-8 Plain Text
Language : Ukrainian
Default : No
Forced : No

Text #2
ID : 5
Format : PGS
Muxing mode : zlib
Codec ID : S_HDMV/PGS
Codec ID/Info : The same subtitle format used on BDs/HD-DVDs
Language : English
Default : No
Forced : No

Menu
00:00:00.000 : en:00:00:00.000
00:06:26.720 : en:00:06:26.720
00:07:06.885 : en:00:07:06.885
00:10:54.112 : en:00:10:54.112
00:12:19.947 : en:00:12:19.947
00:16:09.969 : en:00:16:09.969
00:18:15.636 : en:00:18:15.636
00:19:37.593 : en:00:19:37.593
00:21:06.849 : en:00:21:06.849
00:23:43.630 : en:00:23:43.630
00:29:22.719 : en:00:29:22.719
00:30:39.462 : en:00:30:39.462
00:33:38.099 : en:00:33:38.099
00:36:30.980 : en:00:36:30.980
00:38:19.422 : en:00:38:19.422
00:39:22.568 : en:00:39:22.568
00:45:13.335 : en:00:45:13.335
00:47:14.831 : en:00:47:14.831
00:51:08.148 : en:00:51:08.148
00:55:21.192 : en:00:55:21.192
00:57:30.321 : en:00:57:30.321
01:01:42.239 : en:01:01:42.239
01:04:37.289 : en:01:04:37.289
01:07:33.006 : en:01:07:33.006
01:14:11.321 : en:01:14:11.321
01:18:07.849 : en:01:18:07.849
01:19:25.718 : en:01:19:25.718
01:23:53.402 : en:01:23:53.402
01:24:38.656 : en:01:24:38.656
01:28:00.232 : en:01:28:00.232
01:32:51.356 : en:01:32:51.356
01:34:24.032 : en:01:34:24.032

Величезна подяка пану karvai0 за українську доріжку






Увага!!!
Відео виконане в форматі 3D!

Рекомендується для перегляду на 3D телевізорах з пасивною технологією
Для перегляду на компютері потрібні анагліфні окуляри та стереоплеєр


Інструкції щодо перегляду відео у форматі 3D




Джерело:


 Трекер:    Зареєстрований   

Завантажити / скачати мультфільм українською



відео для новачків



 Зареєстрований:   2013-11-10 15:08
 Розмір:   9.71 GB 
 Оцінка мультфільму:   10/10 (Голосів: 15)
   
Anonymous 







2013-11-10 15:17  
Питання, чи потрібні надалі релізи новинок в 3D?
Просто для себе я і так робити буду, і швиденько оформити тему і викласти проблемою не будею.
Та от чи дійсно потрібно це комусь, чи 3D вантажать лише поприколу зацінити на компютері в картонових окулярах і через хвилину видаляють, чи для комфортного перегляду перед великим 3D телевізором?
Довго зберігати подібні релізи в себе не буду, тому і цікавлюсь чи буде попит, та підтримка таких роздач

mazoo1992 
Новенький


З нами з: 20.10.13
Востаннє: 29.05.15
Повідомлень: 13

2013-11-10 15:20  
Andick
А можна просто без 3D, в 1080p?

Anonymous 







2013-11-10 15:23  
mazoo1992 написано:
А можна просто без 3D, в 1080p?
та хтось інший полюбому зробить
Перлина 
Свій


З нами з: 22.03.10
Востаннє: 21.07.17
Повідомлень: 104

2013-11-10 15:35  
Це ж стереопара на анагліф який картон?
[email protected] 
Новенький


З нами з: 09.05.09
Востаннє: 20.08.17
Повідомлень: 15

2013-11-10 16:15  
Так, такі релізи завджи мені цікаві!!!!
Буду вдячний за оперативність! Wink (2)

acer-max 
Новенький


З нами з: 25.07.11
Востаннє: 13.08.17
Повідомлень: 1

2013-11-11 22:07  
часто моніторю новинки в 3д
oleh19 
Частий відвідувач


З нами з: 22.06.08
Востаннє: 11.08.17
Повідомлень: 31

2013-11-12 00:49  
Ще цікавлять нові BD3D ...Є десь цей мульт?
bodia87 
Відео Гуртом - фільмокрай
Відео Гуртом - фільмокрай


З нами з: 24.01.09
Востаннє: 21.08.17
Повідомлень: 472

2013-11-14 19:01  
Andick написано:
Питання, чи потрібні надалі релізи новинок в 3D?


Однозначно що потрібно ! І чим більше тим краще ! Happy

VO1KORIK 
Новенький


З нами з: 25.05.10
Востаннє: 23.07.17
Повідомлень: 4

2013-11-26 14:06  
bodia87

Підтримую!!!

richard23 
Новенький


З нами з: 17.01.12
Востаннє: 13.06.17
Повідомлень: 2

2013-12-14 03:54  
так потрібні
petrucho 
Новенький


З нами з: 16.12.09
Востаннє: 14.06.17
Повідомлень: 2

2014-04-27 23:39  
Дуже потрібні
Bodik.New 
Новенький


З нами з: 09.08.09
Востаннє: 19.08.17
Повідомлень: 7

2014-05-10 23:14  
Andick написано:
Питання, чи потрібні надалі релізи новинок в 3D?

Звичайно!

Ваш часовий пояс: GMT + 2 Години

Нова тема   Відповісти