Університет монстрів / Monsters University (2013) 720p-mini

Нові коментарі

Нова тема   Відповісти
Автор Повідомлення
Drool 
VIP


З нами з: 17.04.10
Востаннє: 20.08.17
Повідомлень: 1373

2013-11-10 03:21  
Університет монстрів / Monsters University (2013) 720p-mini
Інша варіація цього ж постеру
І ще один варіант постеру

Жанр: анімація, пригодницький, комедія, сімейний, фентезі
Країна: США



Кінокомпанія: Walt Disney Pictures, Pixar Animation Studios
Режисер: Ден Скенлон
Актори: Джон Ґудмен, Біллі Крістал, Стів Бушемі, Гелен Міррен, Пітер Сон, Джоель Мюррей, Шон Гейс, Дейв Фолі, Чарлі Дей, Альфред Моліна

Сюжет:
Майк і Саллі, герої відомої майже кожному анімаційної стрічки "Корпорація монстрів" не завжди були друзями. Цей мультфільм розповість, як ця дивна парочка зав'язала знайомство. Вперше вони познайомилися ще в коледжі, куди пішли вивчати вищі аспекти по Ляканню дітей. Вони були повною протилежністю один одному і навіть ворогували між собою, поки їх не звела спільна робота по "диплому", яка не обійшлася без пригод. Саме спільне рішення проблеми і здружило невротика Майка і здорованя Саллі.


Тривалість: 01:43:47
Якість: 720p-mini
Відео:
кодек:
розмір кадру: 1280x720
бітрейт: 2711 кб/с

Аудіо:
мова: українська
переклад: професійний дубльований
кодек: 5.1
бітрейт: 384 кб/с

Джерело озвучення:
Info
General
Unique ID : 199540139823054419890212889568210892012 (0x961E08754286F242495448051120B4EC)
Complete name : /mnt/data/torrents/Monsters.University.2013.Ukr.Dub-iTunes..720p-mini.
Format :
Format version : Version 4 / Version 2
File size : 2.24 GiB
Duration : 1h 43mn
Overall bit rate : 3 096 Kbps
Movie name : Університет монстрів / Monsters University (2013) 720p-mini | video by MAJESTiC
Encoded date : UTC 2010-02-22 21:41:31
Writing application : mkvmerge v6.1.0 ('Old Devil') built on Apr 14 2013 12:26:22
Writing library : libebml v1.3.0 + libmatroska v1.4.0

Video
ID : 1
Format : AVC
Format/Info : Advanced Video Codec
Format profile : [email protected]
Format settings, CABAC : Yes
Format settings, ReFrames : 6 frames
Codec ID : V_MPEG4/ISO/AVC
Duration : 1h 43mn
Bit rate : 2 711 Kbps
Width : 1 280 pixels
Height : 720 pixels
Display aspect ratio : 16:9
Frame rate : 23.976 fps
Color space : YUV
Chroma subsampling : 4:2:0
Bit depth : 8 bits
Scan type : Progressive
Bits/(Pixel*Frame) : 0.123
Stream size : 1.92 GiB (86%)
Title : Університет монстрів / Monsters University (2013) 720p-mini | video by MAJESTiC
Writing library : core 120 r2164 da19765
Encoding settings : cabac=1 / ref=6 / deblock=1:1:1 / analyse=0x3:0x113 / me=umh / subme=9 / psy=1 / psy_rd=1.00:0.00 / mixed_ref=1 / me_range=48 / chroma_me=1 / trellis=2 / 8x8dct=1 / cqm=0 / deadzone=21,11 / fast_pskip=1 / chroma_qp_offset=-2 / threads=6 / sliced_threads=0 / nr=300 / decimate=1 / interlaced=0 / bluray_compat=0 / constrained_intra=0 / bframes=6 / b_pyramid=2 / b_adapt=1 / b_bias=0 / direct=1 / weightb=1 / open_gop=0 / weightp=2 / keyint=240 / keyint_min=23 / scenecut=40 / intra_refresh=0 / rc_lookahead=40 / rc=2pass / mbtree=1 / bitrate=2711 / ratetol=1.0 / qcomp=0.60 / qpmin=0 / qpmax=69 / qpstep=4 / cplxblur=20.0 / qblur=0.5 / vbv_maxrate=31250 / vbv_bufsize=31250 / nal_hrd=none / ip_ratio=1.40 / aq=1:1.00
Default : Yes
Forced : No

Audio
ID : 2
Format : AC-3
Format/Info : Audio Coding 3
Mode extension : CM (complete main)
Codec ID : A_AC3
Duration : 1h 43mn
Bit rate mode : Constant
Bit rate : 384 Kbps
Channel(s) : 6 channels
Channel positions : Front: L C R, Side: L R, LFE
Sampling rate : 48.0 KHz
Bit depth : 16 bits
Compression mode : Lossy
Stream size : 285 MiB (12%)
Title : Рідна мова ( 5.1 384 kbps | iTunes)
Language : Ukrainian
Default : Yes
Forced : No
Скріншоти



Джерело: відеоряд взято з іноземного ріпу від MAJESTiC
Особиста оцінка: 10 - без зайвих вагань рекомендую всім!


 Трекер:    Зареєстрований   

Завантажити / скачати мультфільм українською



відео для новачків



 Зареєстрований:   2013-11-10 12:16
 Розмір:   2.24 GB 
 Оцінка мультфільму:   9.9/10 (Голосів: 56)
   
bot 
робот


З нами з: 30.09.07
Востаннє: 26.05.05
Повідомлень: 17368

2013-11-10 03:21  
Тему перенесено з Мультфільми в HD до форуму Анонси релізів


Drool

IRONHIDE 
Свій


З нами з: 06.08.10
Востаннє: 18.08.17
Повідомлень: 145

2013-11-10 07:41  
коли реліз?
somnambula 
Відео Гуртом - дизайнер
Відео Гуртом - дизайнер


З нами з: 06.11.09
Востаннє: 20.08.17
Повідомлень: 761

2013-11-10 10:52  
Круто, круто, круто. От би реліз був сьогодні!
bot 
робот


З нами з: 30.09.07
Востаннє: 26.05.05
Повідомлень: 17368

2013-11-10 12:16  
Тему перенесено з Анонси релізів до форуму Мультфільми в HD


Drool

Drool 
VIP


З нами з: 17.04.10
Востаннє: 20.08.17
Повідомлень: 1373

2013-11-10 12:18  
somnambula написано:
Круто, круто, круто. От би реліз був сьогодні!

Не буде сьогодні, а вже є Wink (1)

Велика подяка пану lnkvisitor за надані технічні засоби та інтернет-канал Happy

somnambula 
Відео Гуртом - дизайнер
Відео Гуртом - дизайнер


З нами з: 06.11.09
Востаннє: 20.08.17
Повідомлень: 761

2013-11-10 13:56  
Drool написано:
Не буде сьогодні, а вже є


Ура!

Hanway 
Відео Гуртом - запис з ТБ
Відео Гуртом - запис з ТБ


З нами з: 20.05.11
Востаннє: 19.08.17
Повідомлень: 488

2013-11-10 15:02  
І тут після титрів у бонусній сцені звук не співпадає Sad (1)
Drool 
VIP


З нами з: 17.04.10
Востаннє: 20.08.17
Повідомлень: 1373

2013-11-10 15:12  
Hanway написано:
І тут після титрів у бонусній сцені звук не співпадає

Тільки в цьому місці? У самому мультику все нормально?

Hanway 
Відео Гуртом - запис з ТБ
Відео Гуртом - запис з ТБ


З нами з: 20.05.11
Востаннє: 19.08.17
Повідомлень: 488

2013-11-10 18:40  
Drool
Все інше в нормі, тільки в українській доріжці переплутаний місцями звук бонусної сцени та заставки Діснею.

Ваш часовий пояс: GMT + 2 Години

Нова тема   Відповісти