Теорія Великого Вибуху (Сезон 7) / The Big Bang Theory (Season 7) (2013-2014) 720р Eng | sub Ukr

Нові коментарі

Нова тема   Відповісти
Автор Повідомлення
Gedet 
Відео Гуртом - субтитрування
Відео Гуртом - субтитрування


З нами з: 17.11.11
Востаннє: 15.08.20
Повідомлень: 1756

2013-11-10 01:31  
Теорія Великого Вибуху (Сезон 7) / The Big Bang Theory (Season 7) (2013-2014) 720р Eng | sub Ukr

Теорія Великого Вибуху (Сезон 7) / The Big Bang Theory (Season 7) (2013-2014) 720р Eng | sub Ukr


Жанр: комедія, ситком
Країна: США



Кінокомпанія: Chuck Lorre Productions, Warner Bros. Television
Режисер: Марк Седровські
Актори: Джоні Ґалекі, Джим Парсонс, Кейлі Куоко, Саймон Гельберґ, Кунал Наяр, Меліса Роч, Маєм Бієлік та інші

Сюжет:
Двоє блискучих фізиків, Леонард та Шелдон, розумники, які знаються на тому, як "працює усесвіт". Але їх геніальність ані трішечки не допомагає їм у спілкуванні з людьми, особливо жінками. Все змінюється, коли по сусідству поселяється красуня Пенні. А ще у хлопців є два дивакуватих друга: Говард, який полюбляє використовувати фрази різними мовами і Радж, який втрачає дар мови при появі жінки
Перелік серій
1. Недолік Гофстедтера
2. Оманлива перевірка
3. Круговерть сміття
4. Абсурдизація Індіани
5. Службове зближення
6. Резонанс романтичності
7. Заміщення Протона
8. Сверблячкостимуляція Мозку
9. Розрив зв'язків на День Подяки
10. Виявлення розсіювання
11. Екстракція Купера
12. Коливання розгалуження
13. Окупація перекалібрування
14. Загадка з'їзду
15. Локомотивні маніпуляції
16. Поляризація стола
17. Дружня турбуленція
18. Споглядання мами
19. Об'єднання нерішучості
20. Стосункове розділення
21. Усе може статись із рекуренцією
22. Трансформація протона
23. Горилячий розпад
24. Згорання стутус-кво
Тривалість: 1 серія - 21 хв.
Якість:
Відео:
кодек:
розмір кадру: 1280х720
бітрейт: 3559 кб/с

Аудіо:
мова: англійська
переклад: оригінал
кодек: 2.0
бітрейт: 384 кб/с

Субтитри:
мова: українська
тип: програмні (м'які)
формат: *.
переклад: власний з оригіналу
Info

Unique ID : 179920500250544933360283737165497733964 (0x875B6D8B209CED5EAA280E5050D1934C)
Complete name : D:\ТеоріяВеликогоВибуху7сезон\The.Big.Bang.Theory.S07E01.720p.HDTV.-DIMENSION.
Format :
Format version : Version 2
File size : 621 MiB
Duration : 21mn 35s
Overall bit rate : 4 023 Kbps
Encoded date : UTC 2013-09-26 18:13:38
Writing application : v3.1.0 ('Happy up here') built on Jan 19 2010 12:09:24
Writing library : libebml v0.7.9 + v0.8.1

Video
ID : 1
Format : AVC
Format/Info : Advanced Video Codec
Format profile : [email protected]
Format settings, CABAC : Yes
Format settings, ReFrames : 8 frames
Codec ID : V_MPEG4/ISO/AVC
Duration : 21mn 35s
Bit rate : 3 559 Kbps
Width : 1 280 pixels
Height : 720 pixels
Display aspect ratio : 16:9
Frame rate mode : Constant
Frame rate : 23.976 fps
Color space : YUV
Chroma subsampling : 4:2:0
Bit depth : 8 bits
Scan type : Progressive
Bits/(Pixel*Frame) : 0.161
Stream size : 549 MiB (88%)
Writing library : core 138 r2358 9e941d1
Encoding settings : cabac=1 / ref=8 / deblock=1:-2:-2 / analyse=0x3:0x113 / me=umh / subme=9 / psy=1 / psy_rd=1.00:0.00 / mixed_ref=1 / me_range=24 / chroma_me=1 / trellis=1 / 8x8dct=1 / cqm=0 / deadzone=21,11 / fast_pskip=0 / chroma_qp_offset=-2 / threads=18 / lookahead_threads=2 / sliced_threads=0 / nr=0 / decimate=1 / interlaced=0 / bluray_compat=0 / constrained_intra=0 / bframes=5 / b_pyramid=2 / b_adapt=2 / b_bias=0 / direct=3 / weightb=1 / open_gop=0 / weightp=2 / keyint=250 / keyint_min=23 / scenecut=40 / intra_refresh=0 / rc_lookahead=50 / rc=crf / mbtree=1 / crf=18.0 / qcomp=0.60 / qpmin=0 / qpmax=69 / qpstep=4 / ip_ratio=1.40 / aq=1:1.00
Language : English
Default : No
Forced : No

Audio
ID : 2
Format : AC-3
Format/Info : Audio Coding 3
Mode extension : CM (complete main)
Format settings, Endianness : Big
Codec ID : A_AC3
Duration : 21mn 35s
Bit rate mode : Constant
Bit rate : 384 Kbps
Channel(s) : 6 channels
Channel positions : Front: L C R, Side: L R, LFE
Sampling rate : 48.0 KHz
Bit depth : 16 bits
Compression mode : Lossy
Delay relative to video : 64ms
Stream size : 59.3 MiB (10%)
Default : Yes
Forced : No
Скріншоти







Джерело: Інше
Особиста оцінка: 9 - давно не бачив настільки якісне кіно



Золотий реліз (завантажене не впливає на рейтинг)
 Трекер:    Зареєстрований   

Завантажити / скачати серіал українською



відео для новачків



 Зареєстрований:   2014-05-20 11:03
 Розмір:   12.45 GB 
 Оцінка серіалу:   9.9/10 (Голосів: 110)
   
_Alex_UA 
Поважний учасник


З нами з: 18.07.12
Востаннє: 20.11.20
Повідомлень: 170

2013-11-14 12:06  
поставив 10, але буду чекати переклад
Gedet 
Відео Гуртом - субтитрування
Відео Гуртом - субтитрування


З нами з: 17.11.11
Востаннє: 15.08.20
Повідомлень: 1756

2013-11-16 14:25  
Ви його дочекались.
Gedet 
Відео Гуртом - субтитрування
Відео Гуртом - субтитрування


З нами з: 17.11.11
Востаннє: 15.08.20
Повідомлень: 1756

2013-11-23 23:22  
Вам сподобались мої коментарі зверху екрана і чи варто їх у подальшому додавати?
малюк94 
VIP


З нами з: 03.03.10
Востаннє: 03.11.20
Повідомлень: 405

2014-01-05 00:46  
Gedet
дякую за 12 серію!

Gedet 
Відео Гуртом - субтитрування
Відео Гуртом - субтитрування


З нами з: 17.11.11
Востаннє: 15.08.20
Повідомлень: 1756

2014-01-05 01:18  
А ви знаєте, що це вже шахрайство, вимагати у людини гроші?
За 12 серію прошу. Для вас і робив.Happy

Gedet 
Відео Гуртом - субтитрування
Відео Гуртом - субтитрування


З нами з: 17.11.11
Востаннє: 15.08.20
Повідомлень: 1756

2014-05-20 11:05  
Потяг із Шелдоном відбув із 7 станції, а восени чекайте його прибуття на 8. Кінець сезону, ніби як.Happy
don pedro 
Попереджень: 1
Попереджень: 1 


З нами з: 29.06.11
Востаннє: 24.11.20
Повідомлень: 18160

2014-08-15 21:42  
Пенні нарешті доробиласьHappy

http://www.pinterest.com/pin/380132024770669541/

Gedet 
Відео Гуртом - субтитрування
Відео Гуртом - субтитрування


З нами з: 17.11.11
Востаннє: 15.08.20
Повідомлень: 1756

2014-09-02 19:23  
22 числа починається новий сезон. Готуймося.Happy
burunduk7 
Новенький


З нами з: 14.02.18
Востаннє: 19.11.20
Повідомлень: 3

2018-03-13 11:30  
чи буде в двд-ріп?
Ваш часовий пояс: GMT + 2 Години

Нова тема   Відповісти