Підводне місто / The Underwater City (1962) SATRemux

Нові коментарі

Нова тема   Відповісти
Автор Повідомлення
Anonymous 







2013-10-29 13:09  
Підводне місто / The Underwater City (1962) SATRemux

Підводне місто / The Underwater City (1962) SATRemux


Жанр: фантастика
Країна: США



Режисер: Френк МакДоналд
Актори: Віл'ям Ландіґан, Джулі Адамс, Рой Робертс, Чет Дуґлас, Едвард Меллорі...

Сюжет:
Жінка-психолог і її чоловік-науковець займаються випробуванням конструкцій, здатних витримувати сильний тиск води з метою спорудження першого підводного мегаполіса.

Незабаром їх експерименти приводять до успіху, і через кілька років місто побудоване. Але одного разу виникає серйозна проблема: штучна споруда внесла сум'яття і переполох в природне існування підводного світу, що призводить до кліматичного хаосу ...

Кінокомпанія: Columbia Pictures
Тривалість: 01:14:34
Якість: SATRemux
Відео:
кодек: MPEG-2
розмір кадру: 720 х 576
бітрейт: 2782 кб/с

Аудіо:
мова: українська
переклад: багатоголосий закадровий
кодек: MPA
бітрейт: 128 кб/с

Джерело озвучення:




Джерело:


Срібний реліз (на рейтинг впливає 50% завантаженого)
 Трекер:    Зареєстрований   

Завантажити / скачати фільм українською



відео для новачків



 Зареєстрований:   2013-10-30 11:11
 Розмір:   1.63 GB 
 Оцінка фільму:   9.5/10 (Голосів: 6)
   
bot 
робот


З нами з: 30.09.07
Востаннє: 26.05.05
Повідомлень: 25054

2013-10-30 11:10  
Тему перенесено з Пісочниця до форуму Фільми


Sando7

akon111 
Відео Гуртом - запис з ТБ
Відео Гуртом - запис з ТБ


З нами з: 28.08.09
Востаннє: 12.07.20
Повідомлень: 1336

2013-10-30 11:13  
можу підказати програму для обрізання чорних полів по боках
Anonymous 







2013-10-30 11:16  
akon111 написано:
можу підказати програму для обрізання чорних полів по боках

то вже буде а не SATRemux...перекодування

omm 
Відео Гуртом - фільмокрай
Відео Гуртом - фільмокрай


З нами з: 12.06.12
Востаннє: 13.07.20
Повідомлень: 2413

2013-10-30 12:13  
На DVD-плеєрі буде відтворюватися?
Anonymous 







2013-10-30 16:49  
omm написано:
На DVD-плеєрі буде відтворюватися?

повинно...даю 99.9%.. Wide grin

omm 
Відео Гуртом - фільмокрай
Відео Гуртом - фільмокрай


З нами з: 12.06.12
Востаннє: 13.07.20
Повідомлень: 2413

2013-10-30 17:49  
Модери могли б і золото дати, адже матеріал дійсно раритетний
duben 
Поважний учасник


З нами з: 03.05.09
Востаннє: 02.07.20
Повідомлень: 164

2020-04-18 22:38  
Раритет!
Hentaihunter 
VIP


З нами з: 16.08.08
Востаннє: 13.07.20
Повідомлень: 2535

2020-04-30 18:34  
Якщо цікаво, то можу надати відео з наступними параметрами:
General
Complete name : D:\Video\The Science Fiction Collection by LazarusReklaw&Rejak-Period 1961_1968\Sci-Fi movies-1962\(1962).The.Underwater.City\(1962).The.Underwater.City.m4v
Format : MPEG-4
Format profile : Base Media / Version 2
Codec ID : mp42 (mp42/isom)
File size : 1.46 GiB
Duration : 1 h 17 min
Overall bit rate mode : Variable
Overall bit rate : 2 690 kb/s
Encoded date : UTC 2011-04-21 13:12:45
Tagged date : UTC 2011-04-21 15:03:20
Writing application : HandBrake 0.9.4 2009112300

Video
ID : 1
Format : MPEG-4 Visual
Format profile : [email protected]
Format settings, BVOP : No
Format settings, QPel : No
Format settings, GMC : No warppoints
Format settings, Matrix : Default (H.263)
Codec ID : 20
Duration : 1 h 17 min
Duration_FirstFrame : 33 ms
Bit rate mode : Variable
Bit rate : 2 555 kb/s
Maximum bit rate : 10.6 Mb/s
Width : 624 pixels
Height : 480 pixels
Display aspect ratio : 4:3
Frame rate mode : Constant
Frame rate : 29.970 (30000/1001) FPS
Color space : YUV
Chroma subsampling : 4:2:0
Bit depth : 8 bits
Scan type : Progressive
Compression mode : Lossy
Bits/(Pixel*Frame) : 0.285
Stream size : 1.38 GiB (95%)
Writing library : Lavc52.30.1
Encoded date : UTC 2011-04-21 13:12:45
Tagged date : UTC 2011-04-21 15:03:20
Color primaries : BT.601 NTSC
Transfer characteristics : BT.709
Matrix coefficients : BT.601

Audio
ID : 2
Format :
Format/Info : Advanced Audio Codec
Format profile : LC
Codec ID : 40
Duration : 1 h 17 min
Bit rate mode : Variable
Bit rate : 132 kb/s
Maximum bit rate : 178 kb/s
Channel(s) : 2 channels
Channel positions : Front: L R
Sampling rate : 48.0 kHz
Frame rate : 46.875 FPS (1024 SPF)
Compression mode : Lossy
Stream size : 73.0 MiB (5%)
Title : Stereo
Encoded date : UTC 2011-04-21 13:12:45
Tagged date : UTC 2011-04-21 15:03:20

Ваш часовий пояс: GMT + 2 Години

Нова тема   Відповісти