Гладіатори Риму / Gladiatori di Roma / Not Born to Be Gladiators (2012) 720p x2Ukr/Ita | sub Ita

Нові коментарі

Нова тема   Відповісти
Автор Повідомлення
Anonymous 







2013-10-26 18:02  
Гладіатори Риму / Gladiatori di Roma / Not Born to Be Gladiators (2012) 720p 2xUkr/Ita | sub Ita

Гладіатори Риму / Gladiatori di Roma / Not Born to Be Gladiators (2012) 720p x2Ukr/Ita | sub Ita


Жанр: анімація, пригодницький, комедія
Країна: Італія



Кінокомпанія: Rainbow S.r.l.
Режисер: Іґініо Страффі
Актори: Люка Арджентеро, Лаура Кьятті, Джуліанна Хаф та ін.

Сюжет:
Страшне виверження вулкана руйнує місто Помпеї, і маленький Тім залишається сиротою. Його рятівник, генерал Кірон, відправляє Тіма в школу гладіаторів, але юний ледар наполегливо не бажає ставати бійцем. Подорослішавши, Тім закохується в красуню Лючіллу. Але щоб підкорити її серце, потрібно стати справжнім героєм. Прекрасна Діана, богиня полювання і майстер по гладіаторським боям, береться за тренування Тіма перед першим боєм. Але чи вийде у Тіма перемогти самого себе і стати справжнім чоловіком?


Тривалість: 01:34:04
Якість: [Sensetivity-raws]
Відео:
кодек:
розмір кадру: 1280 х 544
бітрейт: ~4000 кб/с
CRF: 17.0

Аудіо # 1:
мова: українська
переклад: професійний дубльований | Джерело невідоме
кодек: 5.1
бітрейт: 448 кб/с

Аудіо # 2:
мова: українська
переклад: багатоголосий закадровий | ТЕТ (поверх англійського дубляжу)
кодек: 2.0
бітрейт: 192 кб/с

Аудіо # 3:
мова: італійська
переклад: оригінал
кодек: 5.1
бітрейт: 448 кб/с

Субтитри:
мова: італійська
тип: пререндерні
формат: PGS
Info
General
Unique ID : 251475492076077908914797941433206201099 (0xBD306B051EDC2E92B06F56BE0D5A5B0B)
Complete name : E:\BD\GLADIATORI_DI_ROMA_2012_REMUX_HDCLUB\BDMV\STREAM\Not Born to Be Gladiators (2012) 720p [2xukr, ita, sub ita].
Format :
Format version : Version 4 / Version 2
File size : 3.39 GiB
Duration : 1h 34mn
Overall bit rate : 5 155 Kbps
Movie name : Гладіатори Риму / Gladiatori di Roma / Not Born to Be Gladiators (2012) 720p
Encoded date : UTC 2013-10-28 21:06:23
Writing application : mkvmerge v6.4.1 ('Omega Point') built on Sep 16 2013 22:05:10
Writing library : libebml v1.3.0 + libmatroska v1.4.1

Video
ID : 1
Format : AVC
Format/Info : Advanced Video Codec
Format profile : [email protected]
Format settings, CABAC : Yes
Format settings, ReFrames : 7 frames
Codec ID : V_MPEG4/ISO/AVC
Duration : 1h 34mn
Bit rate : 3 964 Kbps
Width : 1 280 pixels
Height : 544 pixels
Display aspect ratio : 2.35:1
Frame rate mode : Constant
Frame rate : 23.976 fps
Color space : YUV
Chroma subsampling : 4:2:0
Bit depth : 8 bits
Scan type : Progressive
Bits/(Pixel*Frame) : 0.237
Stream size : 2.60 GiB (77%)
Title : Sensetivity-raws
Writing library : core 130 r2273 b3065e6
Encoding settings : cabac=1 / ref=7 / deblock=1:-2:-1 / analyse=0x3:0x113 / me=umh / subme=9 / psy=1 / psy_rd=1.00:0.20 / mixed_ref=1 / me_range=50 / chroma_me=1 / trellis=2 / 8x8dct=1 / cqm=0 / deadzone=21,11 / fast_pskip=1 / chroma_qp_offset=-3 / threads=6 / lookahead_threads=1 / sliced_threads=0 / nr=0 / decimate=1 / interlaced=0 / bluray_compat=0 / constrained_intra=0 / bframes=10 / b_pyramid=2 / b_adapt=2 / b_bias=0 / direct=3 / weightb=1 / open_gop=0 / weightp=2 / keyint=230 / keyint_min=23 / scenecut=40 / intra_refresh=0 / rc_lookahead=60 / rc=crf / mbtree=1 / crf=17.0 / qcomp=0.65 / qpmin=0 / qpmax=50 / qpstep=6 / ip_ratio=1.40 / aq=2:1.00
Language : Italian
Default : Yes
Forced : No

Audio #1
ID : 2
Format : AC-3
Format/Info : Audio Coding 3
Mode extension : CM (complete main)
Format settings, Endianness : Big
Codec ID : A_AC3
Duration : 1h 34mn
Bit rate mode : Constant
Bit rate : 448 Kbps
Channel count : 6 channels
Channel positions : Front: L C R, Side: L R, LFE
Sampling rate : 48.0 KHz
Bit depth : 16 bits
Compression mode : Lossy
Stream size : 301 MiB (9%)
Title : Дубляж | AAA-sound
Language : Ukrainian
Default : Yes
Forced : No

Audio #2
ID : 3
Format : AC-3
Format/Info : Audio Coding 3
Mode extension : CM (complete main)
Format settings, Endianness : Big
Codec ID : A_AC3
Duration : 1h 34mn
Bit rate mode : Constant
Bit rate : 192 Kbps
Channel count : 2 channels
Channel positions : Front: L R
Sampling rate : 48.0 KHz
Bit depth : 16 bits
Compression mode : Lossy
Stream size : 129 MiB (4%)
Title : MVO від ТЕТ
Language : Ukrainian
Default : No
Forced : No

Audio #3
ID : 4
Format : AC-3
Format/Info : Audio Coding 3
Mode extension : CM (complete main)
Format settings, Endianness : Big
Codec ID : A_AC3
Duration : 1h 34mn
Bit rate mode : Constant
Bit rate : 448 Kbps
Channel count : 6 channels
Channel positions : Front: L C R, Side: L R, LFE
Sampling rate : 48.0 KHz
Bit depth : 16 bits
Compression mode : Lossy
Stream size : 301 MiB (9%)
Title : Оригінал
Language : Italian
Default : No
Forced : No

Text
ID : 5
Format : PGS
Muxing mode : zlib
Codec ID : S_HDMV/PGS
Codec ID/Info : The same subtitle format used on BDs/HD-DVDs
Title : З BD
Language : Italian
Default : No
Forced : No
log

[info]: frame I:268 Avg QP:13.34 size:206230
[info]: frame P:6494 Avg QP:17.28 size: 46577
[info]: frame B:17671 Avg QP:20.67 size: 13456
[info]: consecutive B-frames: 4.4% 5.2% 13.1% 35.6% 17.2% 21.3% 1.9% 0.4% 0.4% 0.3% 0.2%
[info]: mb I I16..4: 13.7% 55.3% 30.9%
[info]: mb P I16..4: 1.2% 11.4% 3.2% P16..4: 31.1% 19.8% 17.3% 0.0% 0.0% skip:16.0%
[info]: mb B I16..4: 0.1% 1.4% 0.6% B16..8: 30.5% 11.1% 4.6% direct: 4.9% skip:46.8% L0:39.2% L1:41.3% BI:19.5%
[info]: 8x8 transform intra:68.2% inter:50.9%
[info]: direct mvs spatial:100.0% temporal:0.0%
[info]: coded y,uvDC,uvAC intra: 92.1% 91.3% 77.4% inter: 23.5% 25.7% 11.1%
[info]: i16 v,h,dc,p: 17% 18% 20% 45%
[info]: i8 v,h,dc,ddl,ddr,vr,hd,vl,hu: 12% 16% 5% 8% 11% 11% 12% 11% 13%
[info]: i4 v,h,dc,ddl,ddr,vr,hd,vl,hu: 10% 13% 4% 8% 15% 13% 13% 10% 13%
[info]: i8c dc,h,v,p: 39% 25% 18% 18%
[info]: Weighted P-Frames: Y:4.8% UV:2.3%
[info]: ref P L0: 57.4% 12.8% 12.9% 5.6% 4.0% 3.5% 3.1% 0.6% 0.0%
[info]: ref B L0: 81.8% 8.8% 4.9% 2.4% 1.4% 0.7%
[info]: ref B L1: 93.6% 6.4%
Скріншоти
Порівняльні скріншоти

[email protected] + Crop




Або ж тут: http://check2pic.ru/compare/32146/3/














Джерело:
Особиста оцінка: 0 - не дивився


 Трекер:    Зареєстрований   

Завантажити / скачати мультфільм українською



відео для новачків



 Зареєстрований:   2013-10-29 00:22
 Розмір:   3.39 GB 
 Оцінка мультфільму:   6.6/10 (Голосів: 12)
   
bot 
робот


З нами з: 30.09.07
Востаннє: 26.05.05
Повідомлень: 17367

2013-10-26 18:02  
Тему перенесено з Мультфільми в HD до форуму Анонси релізів


NeetScrool

piligrimm97 
VIP


З нами з: 03.07.10
Востаннє: 20.08.17
Повідомлень: 661

2013-10-26 18:13  
Маю запис багатоголосої озвучки з каналу "ТЕТ".
Anonymous 







2013-10-26 18:13  
piligrimm97 написано:
Маю запис багатоголосої озвучки з каналу "ТЕТ".

Давайте. Зведу і додам.

НТН 
Відео Гуртом - фільмокрай
Відео Гуртом - фільмокрай


З нами з: 25.12.11
Востаннє: 20.07.17
Повідомлень: 2170

2013-10-26 18:42  
і пів року не пройшло... здогадалися

Додано через 26 хвилин 13 секунд:

хоч 5.1 вже давно є, але блюр не завадить

MutuLI 
Відео Гуртом - фільмокрай
Відео Гуртом - фільмокрай


З нами з: 08.03.09
Востаннє: 20.08.17
Повідомлень: 1301

2013-10-26 20:40  
Українська доріжка не з Блу рея.
Anonymous 







2013-10-26 20:51  
MutuLI
Цікаво. Невже на DVD почали додавати -MA 5.1 tracker.hdclub.com.ua/details.php?id=16136

Ігор Вінський 
VIP


З нами з: 17.03.11
Востаннє: 20.08.17
Повідомлень: 362

2013-10-26 21:16  
Блю-рей буде? Дуже б х'тілося.
Anonymous 







2013-10-26 21:47  
вінськийігор
Викладу ремукс. Те що за посиланням вище але без рос. доріжки.

Ігор Вінський 
VIP


З нами з: 17.03.11
Востаннє: 20.08.17
Повідомлень: 362

2013-10-26 21:59  
Ремукс не зовсім те. Блю-рей з меню був би до речі.
akon111 
Відео Гуртом - запис з ТБ
Відео Гуртом - запис з ТБ


З нами з: 28.08.09
Востаннє: 17.08.17
Повідомлень: 1220

2013-10-27 10:50  
від коли дистриб'ютор Галеон-кіно почав на носії наш звук додавати?
Віктор 
Відео Гуртом - субтитрування
Відео Гуртом - субтитрування


З нами з: 09.01.10
Востаннє: 11.08.17
Повідомлень: 8686

2013-10-27 11:00  
NeetScrool написано:
Цікаво. Невже на DVD почали додавати -MA 5.1

akon111 написано:
від коли дистриб'ютор Галеон-кіно почав на носії наш звук додавати?

Першоджерело так званого "звуку з блюрей" доріжка з релізу Skiff-а, на жодних ліцензійних носіях укр. доріжки не було.

akon111 
Відео Гуртом - запис з ТБ
Відео Гуртом - запис з ТБ


З нами з: 28.08.09
Востаннє: 17.08.17
Повідомлень: 1220

2013-10-27 23:32  
щось я так і подумав
bot 
робот


З нами з: 30.09.07
Востаннє: 26.05.05
Повідомлень: 17367

2013-10-29 00:22  
Тему перенесено з Анонси релізів до форуму Мультфільми в HD


NeetScrool

Форкуш 
VIP


З нами з: 03.02.10
Востаннє: 20.08.17
Повідомлень: 1831

2013-10-29 00:44  
Чекаю звичайного БДріпу...
Anonymous 







2013-10-29 01:03  
Форкуш написано:
Gladiatori di Roma

https://toloka.to/t44137
Пошуком користуватися не вмієте?

Форкуш 
VIP


З нами з: 03.02.10
Востаннє: 20.08.17
Повідомлень: 1831

2013-10-29 01:10  
NeetScrool написано:
Пошуком користуватися не вмієте?

Ойо...
Провтикав.

praysu 
Забанено
Забанено


З нами з: 22.05.08
Востаннє: 13.11.13
Повідомлень: 119

2013-10-29 23:21  
Поганий мульт. Саме найгірше це графіка мультфільму.
omm 
Відео Гуртом - фільмокрай
Відео Гуртом - фільмокрай


З нами з: 12.06.12
Востаннє: 20.08.17
Повідомлень: 2198

2013-10-29 23:45  
Стоп, як це на блуреї не було укр доріжки? Я не пам'ятаю, звідки вантажив, дивився з ідеальним звуком 448, джерело було вказано блурей, до того ж HQClub (який працює тільки з ліцензійними носіями і ніколи не має справи з кінотеатральними записами) у свій реліз додав українську. Плюс на рутрекері лежить ремукс з доріжкою 1509 kbps. Як то все розуміти?
Віктор 
Відео Гуртом - субтитрування
Відео Гуртом - субтитрування


З нами з: 09.01.10
Востаннє: 11.08.17
Повідомлень: 8686

2013-10-30 20:25  
NeetScrool написано:
професійний дубльований | LINE

І не лайн це. Звук якісний, але не ліцензія.

Anonymous 







2013-10-31 08:22  
praysu
І дерев'яність анімації.

Lil`Antoni 
VIP


З нами з: 25.02.12
Востаннє: 17.08.17
Повідомлень: 366

2013-10-31 10:29  
Вчора подивився, посміявсяHappy
Пєчкін 
Новенький


З нами з: 04.07.11
Востаннє: 21.07.16
Повідомлень: 16

2014-10-25 21:05  
Ну так собі мульт. Найбільше вбиває анімація.
На один раз. Хоча є цікаві моменти.

Ваш часовий пояс: GMT + 2 Години

Нова тема   Відповісти