День ворон / Le jour des corneilles (2012) 720р Frn | Ukr sub

Нові коментарі

Нова тема   Відповісти
Автор Повідомлення
Gedet 
Відео Гуртом - субтитрування
Відео Гуртом - субтитрування


З нами з: 17.11.11
Востаннє: 17.05.17
Повідомлень: 1798

2013-10-24 20:03  
День ворон / Le jour des corneilles (2012) 720р Frn | Ukr sub

День ворон / Le jour des corneilles (2012) 720р Frn | Ukr sub


Жанр: драма, пригоди
Країна: Франція



Кінокомпанія: Finalement, Max Films Productions
Режисер: Жан Крістоф Дюсан
Актори: Жан Рено, Лоран Дойч, Ізабель Каре, Патрік Ліґарде, Клод Шаброль, Бруно Подалідес

Сюжет:
Батько з сином живуть у лісовій хащі. Вони ніколи не виходять у зовнішній світ і страшаться людей. І все це через сумне минуле батька. Але одного разу, через нещасний випадок, вони змушені піти за допомогою до міста. Там Син зустрічає Манон, дочку лікаря, яка показує йому, що зовнішній світ не такий поганий. Так починається ця історія...


Тривалість: 01:35:00
Якість:
Відео:
кодек:
розмір кадру: 1280х544
бітрейт: 2673 кб/с

Аудіо:
мова: французька
переклад: оригінал
кодек: 5.1
бітрейт: 1509 кб/с

Субтитри:
мова: українська
тип: програмні (м'які)
формат: *.ass
Переклад:Емілі
Редакція:Ґедет
Info
General
Unique ID : 196701720800308198411360812221845820129 (0x93FB5F9877098F869F5C17F67B0952E1)
Complete name : D:\ДеньВорон.2012.720p.BluRay.
Format :
Format version : Version 4 / Version 2
File size : 2.81 GiB
Duration : 1h 34mn
Overall bit rate : 4 267 Kbps
Encoded date : UTC 2013-10-24 12:18:15
Writing application : mkvmerge v6.3.0 ('You can't stop me!') built on Jun 28 2013 20:09:41
Writing library : libebml v1.3.0 + libmatroska v1.4.0

Video
ID : 1
Format : AVC
Format/Info : Advanced Video Codec
Format profile : [email protected]
Format settings, CABAC : Yes
Format settings, ReFrames : 12 frames
Codec ID : V_MPEG4/ISO/AVC
Duration : 1h 34mn
Bit rate : 2 673 Kbps
Width : 1 280 pixels
Height : 544 pixels
Display aspect ratio : 2.35:1
Frame rate mode : Constant
Frame rate : 23.976 fps
Color space : YUV
Chroma subsampling : 4:2:0
Bit depth : 8 bits
Scan type : Progressive
Bits/(Pixel*Frame) : 0.160
Stream size : 1.76 GiB (63%)
Title : Le Jour des Corneilles (2012)
Writing library : core 130 r2273kMod b3065e6
Encoding settings : cabac=1 / ref=12 / deblock=1:-3:-3 / analyse=0x3:0x113 / me=umh / subme=10 / psy=1 / fade_compensate=0.00 / psy_rd=1.20:0.00 / mixed_ref=1 / me_range=16 / chroma_me=1 / trellis=2 / 8x8dct=1 / cqm=0 / deadzone=21,11 / fast_pskip=0 / chroma_qp_offset=-2 / threads=6 / lookahead_threads=1 / sliced_threads=0 / nr=0 / decimate=0 / interlaced=0 / bluray_compat=0 / constrained_intra=0 / bframes=10 / b_pyramid=2 / b_adapt=2 / b_bias=0 / direct=3 / weightb=1 / open_gop=0 / weightp=2 / keyint=250 / keyint_min=23 / scenecut=40 / intra_refresh=0 / rc_lookahead=60 / rc=crf / mbtree=0 / crf=17.0000 / qcomp=0.80 / qpmin=0 / qpmax=30 / qpstep=4 / vbv_maxrate=20000 / vbv_bufsize=15000 / crf_max=0.0 / nal_hrd=none / ip_ratio=1.20 / pb_ratio=1.10 / aq=1:1.20
Language : French
Default : Yes
Forced : No

Audio
ID : 2
Format :
Format/Info : Digital Theater Systems
Mode : 16
Format settings, Endianness : Big
Codec ID : A_DTS
Duration : 1h 34mn
Bit rate mode : Constant
Bit rate : 1 509 Kbps
Channel(s) : 6 channels
Channel positions : Front: L C R, Side: L R, LFE
Sampling rate : 48.0 KHz
Bit depth : 24 bits
Compression mode : Lossy
Stream size : 1 018 MiB (35%)
Language : French
Default : No
Forced : No
Скріншоти








Джерело:
Особиста оцінка: 9 - давно не бачив настільки якісне кіно


Золотий реліз (завантажене не впливає на рейтинг)
 Трекер:    Зареєстрований   

Завантажити / скачати мультфільм українською



відео для новачків



 Зареєстрований:   2013-10-25 20:53
 Розмір:   2.81 GB 
 Оцінка мультфільму:   8/10 (Голосів: 14)
   
Інші релізи
ratbol 
Модератор HD


З нами з: 03.02.09
Востаннє: 20.08.17
Повідомлень: 1083

2013-10-25 21:14  
Як це називається?
Ваш часовий пояс: GMT + 2 Години

Нова тема   Відповісти