Полярний Експрес / The Polar Express (2004) 720p Ukr/Eng | Sub Ukr/Eng

Нові коментарі

Нова тема   Відповісти
Автор Повідомлення
braveboy 
Відео Гуртом - команда HD
Відео Гуртом - команда HD


З нами з: 15.06.10
Востаннє: 13.08.17
Повідомлень: 949

2013-10-20 23:50  

Полярний Експрес / The Polar Express (2004) 720p Ukr/Eng | Sub Ukr/Eng


Полярний Експрес / The Polar Express (2004) 720p Ukr/Eng | Sub Ukr/Eng


«Don't miss the holiday film of the season.»


Жанр: анімація, пригодницький, фентезі, сімейний
Країна: США


Кінокомпанія: Castle Rock Entertainment and Warner Bros. Pictures
Режисер: Роберт Земекіс
Актори: Том Хенкс, Леслі Хартер Земекіс, Едді Дизен, Нона М. Гайї, Пітер Сколарі , Брендан Кінг, Енді Пеллик, Джош Елі

Сюжет:
Це історія про хлопчика, що сумнівається в існуванні Санта-Клауса. Потрапивши на таємничий "Полярний експрес", що прямує до Північного Полюса, він залишає позаду всі свої сумніви. І поки Різдвяна ніч опускається на сплячий світ, пасажири швидкісного потягу поспішають у Північний Полюс, зустрічаючи на своєму шляху пригоди та небезпеки, що підстерігають їх в темних лісах, зловісних горах і крижаній тундрі.



Тривалість: 01:39:56
Якість: 720p
Відео:
кодек:
розмір кадру: 1280 х 534
бітрейт: 5363 кб/с

Аудіо # 1:
мова: українська
переклад: багатоголосий закадровий
кодек: 2.0
бітрейт: 256 кб/с

Аудіо # 2:
мова: англійська
переклад: оригінал
кодек: 5.1
бітрейт: 640 кб/с

Джерело озвучення:


Субтитри:
мова: українська
тип: програмні (м'які)
формат: *.srt

Субтитри:
мова: англійська
тип: програмні (м'які)
формат: *.srt

720p by braveboy
log

[info]: profile High, level 4.1
[info]: frame I:958 Avg QP:12.51 size:102141
[info]: frame P:38370 Avg QP:13.71 size: 48808
[info]: frame B:104444 Avg QP:15.04 size: 19609
[info]: consecutive B-frames: 4.1% 6.0% 14.2% 27.9% 20.3% 25.1% 2.5%
[info]: mb I I16..4: 5.9% 71.3% 22.8%
[info]: mb P I16..4: 2.1% 24.3% 4.0% P16..4: 24.7% 19.8% 15.5% 1.6% 0.5% skip: 7.5%
[info]: mb B I16..4: 0.5% 4.6% 0.8% B16..8: 29.5% 20.1% 7.0% direct: 8.9% skip:28.6% L0:39.1% L1:39.4% BI:21.5%
[info]: 8x8 transform intra:79.1% inter:43.1%
[info]: coded y,uvDC,uvAC intra: 84.9% 78.2% 68.1% inter: 36.3% 29.5% 18.5%
[info]: i16 v,h,dc,p: 37% 18% 9% 37%
[info]: i8 v,h,dc,ddl,ddr,vr,hd,vl,hu: 15% 15% 14% 7% 9% 8% 10% 9% 13%
[info]: i4 v,h,dc,ddl,ddr,vr,hd,vl,hu: 16% 10% 8% 8% 14% 11% 13% 9% 12%
[info]: i8c dc,h,v,p: 47% 26% 17% 10%
[info]: Weighted P-Frames: Y:12.2% UV:7.9%
[info]: ref P L0: 52.8% 9.4% 16.6% 6.5% 4.9% 3.7% 3.2% 2.3% 0.6% 0.1%
[info]: ref B L0: 78.4% 11.1% 4.5% 2.5% 1.9% 1.1% 0.5%
[info]: ref B L1: 93.6% 6.4%
[info]: kb/s:5361.34
Info
Video
ID : 1
Format : AVC
Format/Info : Advanced Video Codec
Format profile : [email protected]
Format settings, CABAC : Yes
Format settings, ReFrames : 8 frames
Codec ID : V_MPEG4/ISO/AVC
Duration : 1h 39mn
Bit rate : 5 363 Kbps
Width : 1 280 pixels
Height : 534 pixels
Display aspect ratio : 2.40:1
Frame rate mode : Constant
Frame rate : 23.976 fps
Color space : YUV
Chroma subsampling : 4:2:0
Bit depth : 8 bits
Scan type : Progressive
Bits/(Pixel*Frame) : 0.327
Stream size : 3.66 GiB (84%)
Title : The Polar Express (2004) 720p by braveboy
Writing library : core 129 r2245 bc13772
Encoding settings : cabac=1 / ref=8 / deblock=1:-3:-3 / analyse=0x3:0x133 / me=umh / subme=10 / psy=1 / psy_rd=0.85:0.00 / mixed_ref=1 / me_range=34 / chroma_me=1 / trellis=2 / 8x8dct=1 / cqm=0 / deadzone=21,11 / fast_pskip=0 / chroma_qp_offset=-2 / threads=6 / lookahead_threads=1 / sliced_threads=0 / nr=0 / decimate=0 / interlaced=0 / bluray_compat=0 / constrained_intra=0 / bframes=6 / b_pyramid=2 / b_adapt=2 / b_bias=0 / direct=1 / weightb=1 / open_gop=0 / weightp=2 / keyint=240 / keyint_min=24 / scenecut=40 / intra_refresh=0 / rc=2pass / mbtree=0 / bitrate=5363 / ratetol=1.0 / qcomp=0.60 / qpmin=10 / qpmax=51 / qpstep=4 / cplxblur=20.0 / qblur=0.5 / ip_ratio=1.40 / pb_ratio=1.30 / aq=1:1.00
Default : Yes
Forced : No

Audio #1
ID : 2
Format : AC-3
Format/Info : Audio Coding 3
Mode extension : CM (complete main)
Format settings, Endianness : Big
Codec ID : A_AC3
Duration : 1h 39mn
Bit rate mode : Constant
Bit rate : 256 Kbps
Channel(s) : 2 channels
Channel positions : Front: L R
Sampling rate : 44.1 KHz
Bit depth : 16 bits
Compression mode : Lossy
Stream size : 183 MiB (4%)
Title : 2.0 @ 256 kbps [ICTV]
Language : Ukrainian
Default : Yes
Forced : No

Audio #2
ID : 3
Format : AC-3
Format/Info : Audio Coding 3
Mode extension : CM (complete main)
Format settings, Endianness : Big
Codec ID : A_AC3
Duration : 1h 39mn
Bit rate mode : Constant
Bit rate : 640 Kbps
Channel(s) : 6 channels
Channel positions : Front: L C R, Side: L R, LFE
Sampling rate : 48.0 KHz
Bit depth : 16 bits
Compression mode : Lossy
Stream size : 457 MiB (10%)
Title : 5.1 @ 640 kbps
Language : English
Default : No
Forced : No

Text #1
ID : 4
Format : UTF-8
Codec ID : S_TEXT/UTF8
Codec ID/Info : UTF-8 Plain Text
Title : Full
Language : Ukrainian
Default : No
Forced : No

Text #2
ID : 5
Format : UTF-8
Codec ID : S_TEXT/UTF8
Codec ID/Info : UTF-8 Plain Text
Title : Full
Language : English
Default : No
Forced : No

Menu
00:00:00.000 : en:00:00:00.000
00:05:07.474 : en:00:05:07.474
00:09:46.920 : en:00:09:46.920
00:15:16.415 : en:00:15:16.415
00:18:19.765 : en:00:18:19.765
00:23:08.220 : en:00:23:08.220
00:28:07.519 : en:00:28:07.519
00:33:43.688 : en:00:33:43.688
00:35:25.290 : en:00:35:25.290
00:41:37.328 : en:00:41:37.328
00:44:45.016 : en:00:44:45.016
00:47:06.157 : en:00:47:06.157
00:49:18.622 : en:00:49:18.622
00:53:25.869 : en:00:53:25.869
00:57:18.435 : en:00:57:18.435
01:01:08.999 : en:01:01:08.999
01:05:55.785 : en:01:05:55.785
01:09:55.191 : en:01:09:55.191
01:12:56.205 : en:01:12:56.205
01:16:28.250 : en:01:16:28.250
01:19:37.940 : en:01:19:37.940
01:21:51.406 : en:01:21:51.406
01:27:10.058 : en:01:27:10.058
01:31:21.142 : en:01:31:21.142
Скріншоти
Особиста оцінка: 0 - не дивився


Срібний реліз (на рейтинг впливає 50% завантаженого)
 Трекер:    Зареєстрований   

Завантажити / скачати мультфільм українською



відео для новачків



 Зареєстрований:   2013-10-20 23:52
 Розмір:   4.37 GB 
 Оцінка мультфільму:   9.9/10 (Голосів: 34)
   
vforvadul 
Новенький


З нами з: 17.10.09
Востаннє: 01.05.17
Повідомлень: 4

2013-12-15 20:48  
дайте швидкість)
N.W.A 
VIP


З нами з: 22.11.13
Востаннє: 17.08.17
Повідомлень: 292

2015-09-08 17:35  
Шановні панове ті хто завантажив, приєднайтесь будь ласка до роздачі, дайте й іншим змогу насолодитись релізом!

Завантажив! Всім хто приєднався до роздачі дякую за розуміння, а релізерові за реліз.

Ваш часовий пояс: GMT + 2 Години

Нова тема   Відповісти