Вартові легенд / Rise of the Guardians (2012) 720p-mini (60fps)

Нові коментарі

Нова тема   Відповісти
Автор Повідомлення
Drool 
VIP


З нами з: 17.04.10
Востаннє: 19.08.17
Повідомлень: 1372

2013-10-20 21:50  
Вартові легенд / Rise of the Guardians (2012) 720p-mini (60fps)

Жанр: мультфільм, фентезі, пригоди, сімейний
Країна: США



Кінокомпанія: DreamWorks Animation
Режисер: Пітер Ремсі
Актори: Алек Болдуін, Айла Фішер, Дакота Гойо, Х'ю Джекман, Джуд Лоу, Кріс Пайн, Хаманн Гріффін, Каміль Макфеддена, Джорджі Грів, Емілі Нордвінд

Сюжет:
Не думайте, що Санта Клаус вміє лише кататися на оленях. Не вірте, що Зубна Фея здатна лише розносити подаруночки. Не будьте такі впевнені, що Великодній Кролик всього лише постачальник цукерок, а Сніговик просто заморожує все довкола себе, щоб не розтанути. Разом вони — справжній спецзагін, на плечах якого мир та безпека диво-світу!


Тривалість: 01:37:11
Якість: 720p-mini
Відео:
кодек:
розмір кадру: 1280x720
бітрейт: 8318 кб/с
частота кадрів: 59.940 кадрів/с

Аудіо:
мова: українська
переклад: професійний дубльований
кодек: 5.1
бітрейт: 448 кб/с

Джерело озвучення:


Субтитри:
мова: українська (форсовані)
тип: програмні (м'які)
формат: *.srt
Info
General
Unique ID : 298977609049266578514108466818700153027 (0xE0ECFE350BF3F562B7F19613E49210C3)
Complete name : /mnt/data/torrents/Rise.of.the.Guardians.2012.Ukr.Dub.BDRip720p-mini.60fps.
Format :
Format version : Version 4 / Version 2
File size : 6.07 GiB
Duration : 1h 37mn
Overall bit rate : 8 944 Kbps
Movie name : Вартові легенд / Rise of the Guardians (2012) 720p-mini 60fps | video by EXCLUSIF
Encoded date : UTC 2010-02-22 21:41:31
Writing application : mkvmerge v6.1.0 ('Old Devil') built on Apr 14 2013 12:26:22
Writing library : libebml v1.3.0 + libmatroska v1.4.0

Video
ID : 1
Format : AVC
Format/Info : Advanced Video Codec
Format profile : [email protected]
Format settings, CABAC : Yes
Format settings, ReFrames : 8 frames
Codec ID : V_MPEG4/ISO/AVC
Duration : 1h 37mn
Bit rate : 8 318 Kbps
Width : 1 280 pixels
Height : 720 pixels
Display aspect ratio : 16:9
Frame rate : 59.940 fps
Color space : YUV
Chroma subsampling : 4:2:0
Bit depth : 8 bits
Scan type : Progressive
Bits/(Pixel*Frame) : 0.151
Stream size : 5.65 GiB (93%)
Title : Вартові легенд / Rise of the Guardians (2012) 720p-mini 60fps | video by EXCLUSIF
Writing library : core 130 r2273 b3065e6
Encoding settings : cabac=1 / ref=8 / deblock=1:-3:-2 / analyse=0x3:0x133 / me=umh / subme=9 / psy=1 / psy_rd=1.00:0.00 / mixed_ref=1 / me_range=24 / chroma_me=1 / trellis=2 / 8x8dct=1 / cqm=0 / deadzone=21,11 / fast_pskip=0 / chroma_qp_offset=-2 / threads=6 / lookahead_threads=1 / sliced_threads=0 / nr=0 / decimate=0 / interlaced=0 / bluray_compat=0 / constrained_intra=0 / bframes=5 / b_pyramid=2 / b_adapt=2 / b_bias=0 / direct=3 / weightb=1 / open_gop=0 / weightp=2 / keyint=599 / keyint_min=59 / scenecut=40 / intra_refresh=0 / rc_lookahead=60 / rc=crf / mbtree=1 / crf=18.0 / qcomp=0.60 / qpmin=0 / qpmax=69 / qpstep=4 / ip_ratio=1.40 / aq=1:1.00
Default : Yes
Forced : No

Audio
ID : 2
Format : AC-3
Format/Info : Audio Coding 3
Mode extension : CM (complete main)
Codec ID : A_AC3
Duration : 1h 37mn
Bit rate mode : Constant
Bit rate : 448 Kbps
Channel(s) : 6 channels
Channel positions : Front: L C R, Side: L R, LFE
Sampling rate : 48.0 KHz
Bit depth : 16 bits
Compression mode : Lossy
Stream size : 311 MiB (5%)
Title : Ukrainian DUB
Language : Ukrainian
Default : Yes
Forced : No

Text
ID : 3
Format : UTF-8
Codec ID : S_TEXT/UTF8
Codec ID/Info : UTF-8 Plain Text
Title : Ukrainian (forced)
Language : Ukrainian
Default : Yes
Forced : Yes
Скріншоти







Походження: відеоряд взято з ріпу
Особиста оцінка: 10 - без зайвих вагань рекомендую всім!


 Трекер:    Зареєстрований   

Завантажити / скачати мультфільм українською



відео для новачків



 Зареєстрований:   2013-10-20 21:50
 Розмір:   6.07 GB 
 Оцінка мультфільму:   9.4/10 (Голосів: 19)
   
Старий козак 
Новенький


З нами з: 18.01.11
Востаннє: 12.08.17
Повідомлень: 19

2013-10-20 23:21  
Ще не бачив анімацію з 60 fps.Дуже цікаво.
Drool 
VIP


З нами з: 17.04.10
Востаннє: 19.08.17
Повідомлень: 1372

2013-10-20 23:28  
Старий козак написано:
Ще не бачив анімацію з 60 fps.Дуже цікаво.

Тю. Кунг-Фу Панда / Kung Fu Panda (2008) 720p-mini (50fps) і ще є в мене "Монстри на канікулах 720p-mini 50fps", але за параметрами тут викладувати не можна. Якщо треба - свистіть в приват.

iJuggernaut 
Новенький


З нами з: 14.12.14
Востаннє: 13.05.17
Повідомлень: 15

2015-07-30 19:36  
О так, це РІЧ
чудова озвучка з чудовою якістю, рекомендую.

Ваш часовий пояс: GMT + 2 Години

Нова тема   Відповісти