Діномама / Dino Time (2012) 720p Ukr/Eng

Нові коментарі

Нова тема   Відповісти
Автор Повідомлення
Anonymous 







2013-10-12 17:01  
Діномама / Dino Time (2012) 720p Ukr/Eng



Жанр: анімація, комедія, пригодницький, сімейний
Країна: США, Південна Корея



Кінокомпанія: CJ Entertainment, Myriad Pictures, Toiion See
Режисер: Юн-сік Чхве / Yoon-suk Choi, Джон Кафка / John Kafka
Ролі озвучили: Памела Адлон, Роб Шнайдер, Джейн Лінч, Стівен Болдуін, Вільям Болдуін, Тара Стронг, Мелані Гріффіт, Юрій Ловенталь, Джессіка Ді Чікко, Мелані Абрамофф.

Сюжет:
Ерні, його сестра Джулія і найкращий друг Макс – нерозлучна трійця. Одного разу друзі залізли до дивного пристрою, сконструйованого татом Макса, і випадково натиснули кнопку запуску. Пристрій виявився машиною часу, і друзі опинилися у Юрському періоді, прямо у гнізді тиранозавра. Але на щастя самка гігантського ящура прийняла друзів за своїх діток. Але не все так добре у світі хижаків. Дехто мріє поласувати непроханими гостями! Друзям треба негайно повертитися додому. Але як це зробити, якщо важлива деталь машини зникла?



Рейтинг MPAA: PG - рекомендується присутність батьків
Вікова категорія: 0+


Тривалість: 01:25:26
Якість: 720p
Відео:
кодек:
розмір кадру: 1280x690
бітрейт: 3546 кб/с

Аудіо # 1:
мова: українська
переклад: багатоголосий закадровий
кодек: 2.0
бітрейт: 192 кб/с

Аудіо # 2:
мова: англійська
переклад: оригінал
кодек: 5.1
бітрейт: 640 кб/с

Збережено оригінальні розділи, як на Blu-ray.
Info та
frame I:1104 Avg QP:13.93 size:133580
frame P:31641 Avg QP:15.79 size: 37411
frame B:90159 Avg QP:18.30 size: 11052
consecutive B-frames: 5.2% 4.5% 11.4% 26.6% 14.2% 28.7% 2.8% 2.2% 3.7% 0.8%
Код:
General
Unique ID                                : 244808756057479976459523852906930651247 (0xB82C738E8D7302E1AF1AB8B44974406F)
Complete name                            : Dino Time (2012) [Ukr,Eng] 720р [Hurtom].
Format                                   :
Format version                           : Version 4 / Version 2
File size                                : 2.67 GiB
Duration                                 : 1h 25mn
Overall bit rate                         : 4 467 Kbps
Movie name                               : Діномама / Dino Time / Диномама (2012) 720p [Hurtom]
Encoded date                             : UTC 2013-10-12 12:21:36
Writing application                      : mkvmerge v6.4.1 ('Omega Point') built on Sep 16 2013 22:05:10
Writing library                          : libebml v1.3.0 + libmatroska v1.4.1

Video
ID                                       : 1
Format                                   : AVC
Format/Info                              : Advanced Video Codec
Format profile                           : [email protected]
Format settings, CABAC                   : Yes
Format settings, ReFrames                : 9 frames
Codec ID                                 : V_MPEG4/ISO/AVC
Duration                                 : 1h 25mn
Bit rate                                 : 3 546 Kbps
Width                                    : 1 280 pixels
Height                                   : 690 pixels
Display aspect ratio                     : 1.85:1
Frame rate mode                          : Constant
Frame rate                               : 23.976 fps
Color space                              : YUV
Chroma subsampling                       : 4:2:0
Bit depth                                : 8 bits
Scan type                                : Progressive
Bits/(Pixel*Frame)                       : 0.167
Stream size                              : 2.12 GiB (79%)
Title                                    : Діномама / Dino Time / Диномама (2012) 720p [HDCLUB-xmad]
Writing library                          : core 129 r2245 bc13772
Encoding settings                        : cabac=1 / ref=9 / deblock=1:-1:-1 / analyse=0x3:0x133 / me=umh / subme=11 / psy=1 / psy_rd=0.75:0.00 / mixed_ref=1 / me_range=32 / chroma_me=1 / trellis=2 / 8x8dct=1 / cqm=0 / deadzone=21,11 / fast_pskip=0 / chroma_qp_offset=-2 / threads=12 / lookahead_threads=2 / sliced_threads=0 / nr=0 / decimate=1 / interlaced=0 / bluray_compat=0 / constrained_intra=0 / bframes=9 / b_pyramid=2 / b_adapt=2 / b_bias=0 / direct=3 / weightb=1 / open_gop=0 / weightp=2 / keyint=240 / keyint_min=24 / scenecut=40 / intra_refresh=0 / rc=crf / mbtree=0 / crf=16.2 / qcomp=0.60 / qpmin=0 / qpmax=69 / qpstep=4 / ip_ratio=1.40 / pb_ratio=1.30 / aq=1:0.80
Language                                 : English
Default                                  : Yes
Forced                                   : No

Audio #1
ID                                       : 2
Format                                   : AC-3
Format/Info                              : Audio Coding 3
Mode extension                           : CM (complete main)
Format settings, Endianness              : Big
Codec ID                                 : A_AC3
Duration                                 : 1h 25mn
Bit rate mode                            : Constant
Bit rate                                 : 192 Kbps
Channel count                            : 2 channels
Channel positions                        : Front: L R
Sampling rate                            : 48.0 KHz
Bit depth                                : 16 bits
Compression mode                         : Lossy
Stream size                              : 117 MiB (4%)
Title                                    : MVO [TET] 2.0 192 kbps [Hurtom-Vasua95]
Language                                 : Ukrainian
Default                                  : Yes
Forced                                   : No

Audio #2
ID                                       : 3
Format                                   : AC-3
Format/Info                              : Audio Coding 3
Mode extension                           : CM (complete main)
Format settings, Endianness              : Big
Codec ID                                 : A_AC3
Duration                                 : 1h 25mn
Bit rate mode                            : Constant
Bit rate                                 : 640 Kbps
Channel count                            : 6 channels
Channel positions                        : Front: L C R, Side: L R, LFE
Sampling rate                            : 48.0 KHz
Bit depth                                : 16 bits
Compression mode                         : Lossy
Stream size                              : 391 MiB (14%)
Title                                    : Original 5.1 640 kbps
Language                                 : English
Default                                  : No
Forced                                   : No

Menu
00:00:00.000                             : :Chapter 01
00:07:22.692                             : :Chapter 02
00:15:14.663                             : :Chapter 03
00:22:44.363                             : :Chapter 04
00:30:42.340                             : :Chapter 05
00:38:53.956                             : :Chapter 06
00:46:50.808                             : :Chapter 07
00:54:41.236                             : :Chapter 08
01:02:52.310                             : :Chapter 09
01:10:23.219                             : :Chapter 10
01:18:44.094                             : :Chapter 11
01:25:25.703                             : :Chapter 12




Джерела та подяки: &
ріп відео - xmad (HDClub); українська доріжка - Vasua95 - зведення, xslim, OlegCena - запис з ТБ; (всі - Гуртом).

Окрема подяка Vasua95 за надану оригінальну доріжку.

Особиста оцінка: 6 - можна дивитися


ЗАЛИШАЙТЕСЬ ЯКОМОГА ДОВШЕ НА РОЗДАЧІ!

СКАЧАВ САМ - ДАЙ СКАЧАТИ ІНШИМ


 Трекер:    Зареєстрований   

Завантажити / скачати мультфільм українською



відео для новачків



 Зареєстрований:   2013-10-12 17:01
 Розмір:   2.67 GB 
 Оцінка мультфільму:   4.7/10 (Голосів: 17)
   
Інші релізи
   Діномама / Dino Time (2012) 1080p 3D Ukr/Eng [Half OverUnder] -VipeR-  3 / 0   5.32 GB   2016-01-21 17:08 
   Діномама / Dino Time (2012) AngryBirdsUA  5 / 0   1.45 GB   2013-10-11 21:43 
Ваш часовий пояс: GMT + 2 Години

Нова тема   Відповісти