Перемикач / sWitch [OVA][2008-2009] 480p Ukr/Jap

Нові коментарі

Нова тема   Відповісти
Автор Повідомлення
Arch Enemy 
VIP


З нами з: 30.08.12
Востаннє: 14.08.17
Повідомлень: 644

2013-10-11 21:27  
Перемикач / sWitch


Вікове обмеження: 16+

Жанр: пригоди, детектив, драма.
Період трансляції: з 24.10.2008 по 25.02.2009
Країна: Японія

6.82 (316 голосів)

Аніместудія: ACTAS
Режисер: Оохіра Наокі
Автор оригіналу: Сакі Ото
Сейю: Фукуяма Джюн, Сакураі Такахіро, Сувабе Джюнічі, Тоучі Хірокі, Сугіта Томоказу, Накаі Казуя, Одаі Рьоухей та інші.

Опис: Хару і Ето, вірні товариші на службі департаменту Маторі по боротьбі з наркоторгівлею. Обидва проникають по різні сторони барикад і ведуть розслідування до точки дотику, де їх чекає воістину важке випробування...
© MadGuy, AniUA

Тип: OVA
Кількість серій: 2 епізоди (1 серія / ~30 хв.)

Відео:
якість:
контейнер:
кодек:
частота кадрів: 23.976 кадрів/сек.
розмір кадру: 704х480 (853x480) пікс.
бітрейт: ~1000 кбіт/сек.

Аудіо # 1:
мова: українська, двоголосе/одноголосе закадрове озвучування
кодек:
кількість каналів: 2.0
бітрейт: 448 кбіт/сек.
частота: 48000 Гц

Аудіо # 2:
мова: японська, оригінал
кодек:
кількість каналів: 2.0
бітрейт: 448 кбіт/сек.
частота: 48000 Гц

Джерело озвучення:

озвучування: 01 - Maslinka та Hennessi, 02 - Hennessi
переклад: MadGuy
робота зі звуком: Gwean
збірка релізу: Arch_Enemy

Джерело релізу:
Скріншоти
Info
General
Unique ID : 250481868144831800973964489964945502256 (0xBC710D93F05CADCCABE76CF960157030)
Complete name : E:\Anime\[AniUA]_sWitch_[OVA]_[]\[AniUA]_sWitch_01_[OVA]_[x264_AC3_DVDRip_480p]_[Hennessi_and_Maslinka].
Format :
Format version : Version 4 / Version 2
File size : 405 MiB
Duration : 30mn 7s
Overall bit rate : 1 878 Kbps
Encoded date : UTC 2013-10-11 16:27:23
Writing application : mkvmerge v6.3.0 ('You can't stop me!') built on Jun 28 2013 20:09:41
Writing library : libebml v1.3.0 + libmatroska v1.4.0

Video
ID : 1
Format : AVC
Format/Info : Advanced Video Codec
Format profile : [email protected]
Format settings, CABAC : Yes
Format settings, ReFrames : 16 frames
Codec ID : V_MPEG4/ISO/AVC
Duration : 30mn 7s
Bit rate : 980 Kbps
Width : 704 pixels
Height : 480 pixels
Display aspect ratio : 16:9
Original display aspect ratio : 3:2
Frame rate mode : Constant
Frame rate : 23.976 fps
Standard : NTSC
Color space : YUV
Chroma subsampling : 4:2:0
Bit depth : 8 bits
Scan type : Progressive
Bits/(Pixel*Frame) : 0.121
Stream size : 204 MiB (50%)
Title : http://aniua.com/
Writing library : core 80 r1373 4322f63
Encoding settings : cabac=1 / ref=16 / deblock=1:0:0 / analyse=0x3:0x133 / me=umh / subme=9 / psy=1 / psy_rd=1.0:0.0 / mixed_ref=1 / me_range=32 / chroma_me=1 / trellis=0 / 8x8dct=1 / cqm=0 / deadzone=14,8 / fast_pskip=0 / chroma_qp_offset=-2 / threads=6 / sliced_threads=0 / nr=0 / decimate=0 / mbaff=0 / constrained_intra=0 / bframes=8 / b_pyramid=2 / b_adapt=2 / b_bias=0 / direct=3 / wpredb=1 / wpredp=2 / keyint=250 / keyint_min=25 / scenecut=40 / rc_lookahead=60 / rc=2pass / mbtree=1 / bitrate=980 / ratetol=1.0 / qcomp=0.60 / qpmin=10 / qpmax=51 / qpstep=4 / cplxblur=20.0 / qblur=0.5 / ip_ratio=1.40 / aq=2:1.00
Language : Japanese
Default : Yes
Forced : Yes

Audio #1
ID : 2
Format : AC-3
Format/Info : Audio Coding 3
Mode extension : CM (complete main)
Format settings, Endianness : Big
Codec ID : A_AC3
Duration : 30mn 7s
Bit rate mode : Constant
Bit rate : 448 Kbps
Channel count : 2 channels
Channel positions : Front: L R
Sampling rate : 48.0 KHz
Bit depth : 16 bits
Compression mode : Lossy
Stream size : 96.5 MiB (24%)
Title : Hennessi and Maslinka
Language : Ukrainian
Default : Yes
Forced : Yes

Audio #2
ID : 3
Format : AC-3
Format/Info : Audio Coding 3
Mode extension : CM (complete main)
Format settings, Endianness : Big
Codec ID : A_AC3
Duration : 30mn 7s
Bit rate mode : Constant
Bit rate : 448 Kbps
Channel count : 2 channels
Channel positions : Front: L R
Sampling rate : 48.0 KHz
Bit depth : 16 bits
Compression mode : Lossy
Delay relative to video : 14ms
Stream size : 96.5 MiB (24%)
Title : Original
Language : Japanese
Default : No
Forced : No


Авторський реліз (завантажувати можна без реєстрації)
 Трекер:    Зареєстрований   

Завантажити / скачати аніме українською



відео для новачків



 Зареєстрований:   2014-01-27 23:02
 Розмір:   812 MB 
 Оцінка аніме:   10/10 (Голосів: 1)
   
Arch Enemy 
VIP


З нами з: 30.08.12
Востаннє: 14.08.17
Повідомлень: 644

2013-10-11 21:48  
Для допитливих:
Arch Enemy написано:
двоголосе/одноголосе закадрове озвучування

Тому що там всі ролі чоловічі і тільки в першій ОВАшці аж дві жіночі фрази)))

Такий собі детективчик з "Гламурнимі Парнямі", розрахований на жіночу аудиторію. ^_^
Попереджаю відразу - гейства немає!)))

Arch Enemy 
VIP


З нами з: 30.08.12
Востаннє: 14.08.17
Повідомлень: 644

2014-01-27 23:04  
Реліз оновлено - додано останню серію.


І ще мінус один реліз.

Очікуйте на новинки та цікавинки))))

Ваш часовий пояс: GMT + 2 Години

Нова тема   Відповісти