Зетмен / ZetMan [2012] 720p Ukr/Jap

Нові коментарі

Нова тема   Відповісти
Автор Повідомлення
Arch Enemy 
VIP


З нами з: 30.08.12
Востаннє: 14.08.17
Повідомлень: 644

2013-10-11 17:12  
Зетмен / ZetMan

Зетмен / ZetMan [2012] 720p Ukr/Jap

Вікове обмеження: 16+

Жанр: пригоди, фантастика, драма, жахи.
Період трансляції: з 03.04.2012 по 26.06.2012
Країна: Японія

6.28 (895 голосів)

Аніместудія: TMS
Режисер: Набешіма Осаму
Автор оригіналу: Кацура Масаказу
Сейю: Намікава Дайсуке, Міяно Мамору, Ханазава Кана, Паку Ромі, Хаямізу Ріса, Ісе Марія та інші.

Опис: Два супергерої змагаються один з одним і, природно, борються зі світовим злом. В якості світового зла виступають «гравці», штучні створення корпорації «Amagi Corporation», власником якої є дідусь одного з супергероїв. Молода людина на ім'я Джин Канзакі має надздібності, і виступає під нікнеймом Зет. Його антогоніст, Кога Амага для боротьби використовує сучасні технології та наукові досягнення.

Кількість серій: 13 (1 серія / ~24 хв.)
Перелік серій
01. Не освідчені почуття
02. У вогні
03. Катування
04. Нещастя
05. Альфас
06. Заручниця
07. Кільце опромінень
08. Звичайна сім'я
09. Місцезнаходження кулона
10. Вечірка
11. Маріонетка
12. Червона форма
13. Траурна процесія

Відео:

якість:
контейнер:
кодек:
частота кадрів: 23.976 кадрів/сек.
розмір кадру: 1280х720 пікс.
бітрейт: ~2000 кбіт/сек.
бітність: 10 біт

Аудіо # 1:
мова: українська, двоголосе закадрове озвучування
кодек:
кількість каналів: 2.0
бітрейт: 192 кбіт/сек.
частота: 48000 Гц

Аудіо # 2:
мова: японська, оригінал
кодек:
кількість каналів: 2.0
бітрейт: 192 кбіт/сек.
частота: 48000 Гц

Джерело озвучення:

озвучування: 01-03 - KytsyaHena та Hennessi, 04-13 - Русалка та Hennessi
переклад: Sneik
робота зі звуком: Nilixx

Джерело релізу:
Скріншоти
Info
General
Unique ID : 204371091327952700935776053911241200737 (0x99C070C1B212AD64865FB01E95D19461)
Complete name : E:\Anime\[AniUA]_ZetMan_[]\[AniUa]_Zetman_-_ 01_[BD_x264_1280x720_Hi10p_AC3]_[Hennessi_and_KytsyaHena].
Format :
Format version : Version 4 / Version 2
File size : 442 MiB
Duration : 23mn 46s
Overall bit rate : 2 602 Kbps
Encoded date : UTC 2013-10-10 23:52:25
Writing application : mkvmerge v6.3.0 ('You can't stop me!') built on Jun 28 2013 20:09:41
Writing library : libebml v1.3.0 + libmatroska v1.4.0

Video
ID : 1
Format : AVC
Format/Info : Advanced Video Codec
Format profile : High [email protected]
Format settings, CABAC : Yes
Format settings, ReFrames : 4 frames
Codec ID : V_MPEG4/ISO/AVC
Duration : 23mn 46s
Bit rate : 2 166 Kbps
Width : 1 280 pixels
Height : 720 pixels
Display aspect ratio : 16:9
Frame rate mode : Constant
Frame rate : 23.976 fps
Original frame rate : 29.970 fps
Color space : YUV
Chroma subsampling : 4:2:0
Bit depth : 10 bits
Scan type : Progressive
Bits/(Pixel*Frame) : 0.098
Stream size : 368 MiB (83%)
Title : http://aniua.com/
Writing library : core 128 r2216 198a7ea
Encoding settings : cabac=1 / ref=3 / deblock=1:0:0 / analyse=0x3:0x113 / me=hex / subme=7 / psy=1 / psy_rd=1.00:0.00 / mixed_ref=1 / me_range=16 / chroma_me=1 / trellis=1 / 8x8dct=1 / cqm=0 / deadzone=21,11 / fast_pskip=1 / chroma_qp_offset=-2 / threads=3 / lookahead_threads=1 / sliced_threads=0 / nr=0 / decimate=1 / interlaced=0 / bluray_compat=0 / constrained_intra=0 / bframes=3 / b_pyramid=2 / b_adapt=1 / b_bias=0 / direct=1 / weightb=1 / open_gop=0 / weightp=2 / keyint=240 / keyint_min=23 / scenecut=40 / intra_refresh=0 / rc_lookahead=40 / rc=crf / mbtree=1 / crf=16.0 / qcomp=0.60 / qpmin=0 / qpmax=81 / qpstep=4 / ip_ratio=1.40 / aq=1:1.00
Language : Japanese
Default : Yes
Forced : Yes

Audio #1
ID : 2
Format : AC-3
Format/Info : Audio Coding 3
Mode extension : CM (complete main)
Format settings, Endianness : Big
Codec ID : A_AC3
Duration : 23mn 46s
Bit rate mode : Constant
Bit rate : 192 Kbps
Channel count : 2 channels
Channel positions : Front: L R
Sampling rate : 48.0 KHz
Bit depth : 16 bits
Compression mode : Lossy
Stream size : 32.6 MiB (7%)
Title : Hennessi and KytsyaHena
Language : Ukrainian
Default : Yes
Forced : Yes

Audio #2
ID : 3
Format : AC-3
Format/Info : Audio Coding 3
Mode extension : CM (complete main)
Format settings, Endianness : Big
Codec ID : A_AC3
Duration : 23mn 46s
Bit rate mode : Constant
Bit rate : 192 Kbps
Channel count : 2 channels
Channel positions : Front: L R
Sampling rate : 48.0 KHz
Bit depth : 16 bits
Compression mode : Lossy
Stream size : 32.6 MiB (7%)
Title : Original
Language : Japanese
Default : No
Forced : No


Авторський реліз (завантажувати можна без реєстрації)
 Трекер:    Зареєстрований   

Завантажити / скачати аніме українською



відео для новачків



 Зареєстрований:   2014-02-06 11:02
 Розмір:   4.92 GB 
 Оцінка аніме:   9.8/10 (Голосів: 4)
   
Arch Enemy 
VIP


З нами з: 30.08.12
Востаннє: 14.08.17
Повідомлень: 644

2013-12-07 00:53  
Реліз оновлено - додано 07 серію

Arch Enemy 
VIP


З нами з: 30.08.12
Востаннє: 14.08.17
Повідомлень: 644

2013-12-08 17:32  
Реліз оновлено - додано 08 серію

Arch Enemy 
VIP


З нами з: 30.08.12
Востаннє: 14.08.17
Повідомлень: 644

2013-12-17 18:30  
Реліз оновлено - додано 09 серію

Arch Enemy 
VIP


З нами з: 30.08.12
Востаннє: 14.08.17
Повідомлень: 644

2013-12-30 19:59  
Реліз оновлено - додано 10 серію

Arch Enemy 
VIP


З нами з: 30.08.12
Востаннє: 14.08.17
Повідомлень: 644

2014-01-22 14:14  
Реліз оновлено - додано 11 серію

Arch Enemy 
VIP


З нами з: 30.08.12
Востаннє: 14.08.17
Повідомлень: 644

2014-02-06 11:06  
Реліз оновлено - додано 12-13 [останні] серії


і ще мінус один.
Далі цікавіше))))

KuatemOk 
Поважний учасник


З нами з: 15.11.08
Востаннє: 13.08.17
Повідомлень: 179

2014-02-09 22:26  
прикольна анімешка, не вражає, але й витраченого часу не шкода)
Arch Enemy 
VIP


З нами з: 30.08.12
Востаннє: 14.08.17
Повідомлень: 644

2014-02-10 00:03  
KuatemOk написано:
прикольна анімешка, не вражає, але й витраченого часу не шкода)

Подальші проекти будуть цікавішими)))
Чекайте.

KuatemOk 
Поважний учасник


З нами з: 15.11.08
Востаннє: 13.08.17
Повідомлень: 179

2014-02-12 00:28  
Arch Enemy написано:
Чекайте.

окей, буду чекати)), до речі, не плануєте озвучити повнометражні аніме, як то "Мисливець на вампірів Ді", "Манускрипт ніндзя", "Привид в обладунках" та інші? )

Arch Enemy 
VIP


З нами з: 30.08.12
Востаннє: 14.08.17
Повідомлень: 644

2014-02-12 01:24  
KuatemOk написано:
окей, буду чекати)), до речі, не плануєте озвучити повнометражні аніме, як то "Мисливець на вампірів Ді", "Манускрипт ніндзя", "Привид в обладунках" та інші? )

Привид у планах, але поки не знаю коли до нього доберемося, впринципі субтитри є, але вони трохи коряві і потребують редагування.
Інші - поки не замислювалися, проте по мірі роботи будемо підхоплювати щось подібне)))
я взагалі по більшій частині фанат драм і шедеврів класики, мені подібні речі довподоби, проте це ще залежить від бажань та вподобань наших даберів.
Впринципі гадаю щось та й зробимо найближчим часом, а поки у нас в планах - доробити хвости.
Після повного виходу релізу "Сатана на заробітках", у нас в планах доволі попсовий і м'ясний проект (сподіваюсь всі будуть раді йому).
А на літо (орієнтовно) - продовження САО.

З подібного, якщо не дивився, то ми робили і виклали тут Кров: Останній Вампір / Blood: the Last Vampire - раджу подивитися (як на мене - доволі непогано вийшло + DVD на нього я класно зробив).

Впринципі - пропозиціям ми завжди раді і будемо прислухатися до них.

Ваш часовий пояс: GMT + 2 Години

Нова тема   Відповісти