Неймовірні Диво-Дітки: БЕЗ МЕЖ / Zettai Karen Children: The Unlimited - Hyoubu Kyousuke [TV] [2013] 720p Ukr/Jap

Нові коментарі

Нова тема   Відповісти
Автор Повідомлення
Arch Enemy 
VIP


З нами з: 30.08.12
Востаннє: 24.08.17
Повідомлень: 650

2013-10-10 20:38  
Zettai Karen Children: The Unlimited - Hyoubu Kyousuke / Неймовірні Диво-Дітки: БЕЗ МЕЖ

Неймовірні Диво-Дітки: БЕЗ МЕЖ / Zettai Karen Children: The Unlimited - Hyoubu Kyousuke [TV] [2013] 720p Ukr/Jap

Вікове обмеження: 16+

Жанр: пригоди.
Період трансляції: з 08.01.2013 по 26.03.2013
Країна: Японія

7.09 (373 голосів)

Аніместудія:
Режисер: Ігараші Тацуя
Автор оригіналу: Шііна Такаші
Сейю: Суваба Джюнічі, Юса Коуджі, Хатано Ватару, Оохара Саяка, Очіай Коуджі, Накамура Юуічі Кугімія Ріе, Таніяма Кішоу, Тоуяма Нао та інші.

Опис: Хьобу Кьоске, Еспер який був зраджений багато років тому, зараз є одним з найсильніших екстрасенсів, а також втікачем. Тим не менш, у нього дуже добре серце та його головною метою є вберегти екстрасенсів від поганих людей. Завдяки його методам, він врятував багато життів і зібрав порятованих есперів в свою організацію P.A.N.D.R.A.

Кількість серій: 12
Тривалість однієї серії: ≈25 хв.
Перелік серій
01. Паранормальна втеча з в'язниці.
02. Мелодія Вбивства.
03. Світло і Темрява.
04. Абсолютна влада.
05. Незнайомці.
06. Темрява, Втеча.
07. Підрозділ ЕС, частина перша.
08. Підрозділ ЕС, частина друга.
09. Катастрофа.
10. Далекий рай.
11. Двоє в епіцентрі бурі.
12. У майбутнє.
Відео:
якість: HDTV-Rip
контейнер: mp4
кодек:
частота кадрів: 23.976 кадрів/сек.
розмір кадру: 1280х720 пікс.
бітрейт: ≈1800 кбіт/сек.

Аудіо # 1:
мова: українська, одноголосе закадрове озвучування (чол.)
кодек:
кількість каналів: 2.0
бітрейт: 192 кбіт/сек.
частота: 48000 Гц

Аудіо # 2:
мова: японська, оригінал
кодек:
кількість каналів: 2.0
бітрейт: 192 кбіт/сек.
частота: 48000 Гц

Джерело озвучення:

озвучування: Spectator
переклад: MadGuy
робота зі звуком: Spectator

Джерело релізу:
Скріншоти

Info
General
Complete name : D:\AniUA_Own\[AniUA]_Zettai_Karen_Children_-_The_Unlimited_-_Hyoubu_Kyousuke_[spectator]\[AniUA]_Zettai_Karen_Children_-_The_Unlimited_-_Hyoubu_Kyousuke_-_01_(1280x720_x264_AAC)_[spectator].mp4
Format : MPEG-4
Format profile : Base Media
Codec ID : isom
File size : 397 MiB
Duration : 24mn 40s
Overall bit rate mode : Variable
Overall bit rate : 2 250 Kbps
Encoded date : UTC 2013-01-08 21:09:41
Tagged date : UTC 2013-01-08 21:09:41

Video
ID : 1
Format : AVC
Format/Info : Advanced Video Codec
Format profile : [email protected]
Format settings, CABAC : Yes
Format settings, ReFrames : 4 frames
Codec ID : avc1
Codec ID/Info : Advanced Video Coding
Duration : 24mn 39s
Bit rate : 1 864 Kbps
Maximum bit rate : 10.3 Mbps
Width : 1 280 pixels
Height : 720 pixels
Display aspect ratio : 16:9
Frame rate mode : Constant
Frame rate : 23.976 fps
Color space : YUV
Chroma subsampling : 4:2:0
Bit depth : 8 bits
Scan type : Progressive
Bits/(Pixel*Frame) : 0.084
Stream size : 329 MiB (83%)
Writing library : core 129 r2230 1cffe9f
Encoding settings : cabac=1 / ref=4 / deblock=1:-1:-1 / analyse=0x3:0x113 / me=umh / subme=9 / psy=1 / psy_rd=0.60:0.20 / mixed_ref=1 / me_range=32 / chroma_me=1 / trellis=2 / 8x8dct=1 / cqm=0 / deadzone=21,11 / fast_pskip=0 / chroma_qp_offset=-3 / threads=6 / lookahead_threads=1 / sliced_threads=0 / nr=0 / decimate=0 / interlaced=0 / bluray_compat=0 / constrained_intra=0 / bframes=3 / b_pyramid=0 / b_adapt=2 / b_bias=0 / direct=3 / weightb=1 / open_gop=0 / weightp=2 / keyint=240 / keyint_min=1 / scenecut=50 / intra_refresh=0 / rc=crf / mbtree=0 / crf=21.0 / qcomp=0.60 / qpmin=0 / qpmax=27 / qpstep=8 / ip_ratio=1.40 / pb_ratio=1.30 / aq=1:0.50
Encoded date : UTC 2013-01-07 18:02:50
Tagged date : UTC 2013-01-08 21:10:02
Color primaries : BT.709
Transfer characteristics : BT.709
Matrix coefficients : BT.709

Audio #1
ID : 2
Format :
Format/Info : Advanced Audio Codec
Format profile : LC
Codec ID : 40
Duration : 24mn 39s
Bit rate mode : Variable
Bit rate : 192 Kbps
Maximum bit rate : 200 Kbps
Channel count : 2 channels
Channel positions : Front: L R
Sampling rate : 48.0 KHz
Compression mode : Lossy
Delay relative to video : 42ms
Stream size : 33.9 MiB (9%)
Language : Ukrainian
Encoded date : UTC 2013-01-08 21:10:00
Tagged date : UTC 2013-01-08 21:10:02

Audio #2
ID : 3
Format :
Format/Info : Advanced Audio Codec
Format profile : LC
Codec ID : 40
Duration : 24mn 40s
Bit rate mode : Variable
Bit rate : 192 Kbps
Maximum bit rate : 197 Kbps
Channel count : 2 channels
Channel positions : Front: L R
Sampling rate : 48.0 KHz
Compression mode : Lossy
Delay relative to video : 42ms
Stream size : 33.3 MiB (8%)
Encoded date : UTC 2013-01-08 21:10:01
Tagged date : UTC 2013-01-08 21:10:02


Авторський реліз (завантажувати можна без реєстрації)
 Трекер:    Зареєстрований   

Завантажити / скачати аніме українською



відео для новачків



 Зареєстрований:   2013-10-10 20:38
 Розмір:   4.41 GB 
 Оцінка аніме:   10/10 (Голосів: 5)
   
NeetScrool 
Відео Гуртом - фільмокрай
Відео Гуртом - фільмокрай


З нами з: 10.01.13
Востаннє: 24.08.17
Повідомлень: 2613

2013-10-10 22:22  
саби-саби...
Arch Enemy 
VIP


З нами з: 30.08.12
Востаннє: 24.08.17
Повідомлень: 650

2013-10-11 15:55  
NeetScrool написано:
саби-саби...

я мабуть попрошу в модераторів та адміністраторів трекеру дозволити додавати пункт:

Цитата:
Субтитри: Не дам.

Те що вони були суто технічними під озвучку і в реліз не йдуть - про це думаю не варто пояснювати.
Та й на скільки пам'ятаю це всетаки розділ з озвученням, а не субтитрами, тому маємо повне право викладати без них і ніяких претензій щодо цього висуватися з боку користувачів не має.

Але скільки спостерігаю - хоч вказуй, хоч не вказуй про це - всеодно скиглять... "дай-дай..."

і ще нагадаю:
Arch Enemy написано:
як не дивно, чомусь у омікрона їх ніхто не клянчить))))

ImfromUkraine 
VIP


З нами з: 18.02.12
Востаннє: 22.08.17
Повідомлень: 289

2013-10-12 18:02  
а це не претензія, а прохання) дійсно хотілося б субтитрів
Arch Enemy 
VIP


З нами з: 30.08.12
Востаннє: 24.08.17
Повідомлень: 650

2013-10-12 19:37  
скоро буде один проектик, от там субтитри точно будуть)))
окремо як написи і окремо - для сабофілів)))

ImfromUkraine 
VIP


З нами з: 18.02.12
Востаннє: 22.08.17
Повідомлень: 289

2013-10-13 22:38  
ураа))
Ваш часовий пояс: GMT + 2 Години

Нова тема   Відповісти