Аеротачки / Sky Force 3D (2012) 720p Ukr/Eng

Нові коментарі

Нова тема   Відповісти
Автор Повідомлення
Anonymous 







2013-10-02 09:06  
Аеротачки / Sky Force 3D (2012) 720p Ukr/Eng



Жанр: анімація
Країна: США, Гонконг



Кінокомпанія: Limelight Animation Studios, T-Films
Режисер: Тоні Тенг / Tony Tang
Актори: Джон С. Флінн / John S. Flynn, Хезер Гордон / Heather Gordon, Аарон Кребс / Aaron Krebs

Сюжет:
Кумедна історія про пригоди гвинтового літачка у світі сучасних літаків.



Вікова категорія: 0+


Тривалість: 01:21:00
Якість: 720p
Відео:
кодек:
розмір кадру: 1280x720
бітрейт: 4208 кб/с

Аудіо # 1:
мова: українська
переклад: багатоголосий закадровий
кодек: 2.0
бітрейт: 192 кб/с

Аудіо # 2:
мова: англійська
переклад: оригінал
кодек: 5.1
бітрейт: 1536 кб/с

Збережено оригінальні розділи, як на Blu-ray.
Info
Код:
General
Unique ID                                : 204752129759165595162722366411508994194 (0x9A09D366D80B9A96AE9937E7C3D2D092)
Complete name                            : Sky Force 3D (2012) [Ukr,Eng] 720p [Hurtom].
Format                                   :
Format version                           : Version 4 / Version 2
File size                                : 3.34 GiB
Duration                                 : 1h 21mn
Overall bit rate                         : 5 910 Kbps
Movie name                               : Аеротачки / Sky Force 3D (2012) 720p [Hurtom]
Encoded date                             : UTC 2013-10-01 15:45:24
Writing application                      : mkvmerge v6.4.1 ('Omega Point') built on Sep 16 2013 22:05:10
Writing library                          : libebml v1.3.0 + libmatroska v1.4.1

Video
ID                                       : 1
Format                                   : AVC
Format/Info                              : Advanced Video Codec
Format profile                           : [email protected]
Format settings, CABAC                   : Yes
Format settings, ReFrames                : 4 frames
Codec ID                                 : V_MPEG4/ISO/AVC
Duration                                 : 1h 21mn
Bit rate                                 : 4 208 Kbps
Width                                    : 1 280 pixels
Height                                   : 720 pixels
Display aspect ratio                     : 16:9
Frame rate mode                          : Constant
Frame rate                               : 23.976 fps
Color space                              : YUV
Chroma subsampling                       : 4:2:0
Bit depth                                : 8 bits
Scan type                                : Progressive
Bits/(Pixel*Frame)                       : 0.190
Stream size                              : 2.32 GiB (69%)
Title                                    : Аеротачки / Sky Force 3D (2012) 720p
Writing library                          : core 138 r2358 9e941d1
Encoding settings                        : cabac=1 / ref=5 / deblock=1:-3:-3 / analyse=0x3:0x133 / me=umh / subme=7 / psy=1 / psy_rd=1.00:0.15 / mixed_ref=1 / me_range=16 / chroma_me=1 / trellis=2 / 8x8dct=1 / cqm=0 / deadzone=21,11 / fast_pskip=1 / chroma_qp_offset=-3 / threads=6 / lookahead_threads=1 / sliced_threads=0 / nr=0 / decimate=1 / interlaced=0 / bluray_compat=0 / constrained_intra=0 / bframes=5 / b_pyramid=1 / b_adapt=2 / b_bias=0 / direct=1 / weightb=1 / open_gop=0 / weightp=2 / keyint=240 / keyint_min=23 / scenecut=40 / intra_refresh=0 / rc_lookahead=30 / rc=2pass / mbtree=1 / bitrate=4208 / ratetol=1.0 / qcomp=0.60 / qpmin=0 / qpmax=69 / qpstep=4 / cplxblur=20.0 / qblur=0.5 / ip_ratio=1.40 / aq=1:1.00
Language                                 : English
Default                                  : Yes
Forced                                   : Yes

Audio #1
ID                                       : 2
Format                                   : AC-3
Format/Info                              : Audio Coding 3
Mode extension                           : CM (complete main)
Format settings, Endianness              : Big
Codec ID                                 : A_AC3
Duration                                 : 1h 21mn
Bit rate mode                            : Constant
Bit rate                                 : 192 Kbps
Channel(s)                               : 2 channels
Channel positions                        : Front: L R
Sampling rate                            : 48.0 KHz
Bit depth                                : 16 bits
Compression mode                         : Lossy
Stream size                              : 111 MiB (3%)
Title                                    : MVO [1+1] 2.0 192 kbps [Hurtom-Vasua95]
Language                                 : Ukrainian
Default                                  : Yes
Forced                                   : No

Audio #2
ID                                       : 3
Format                                   :
Format/Info                              : Digital Theater Systems
Mode                                     : 16
Format settings, Endianness              : Big
Codec ID                                 : A_DTS
Duration                                 : 1h 21mn
Bit rate mode                            : Constant
Bit rate                                 : 1 509 Kbps
Channel(s)                               : 6 channels
Channel positions                        : Front: L C R, Side: L R, LFE
Sampling rate                            : 48.0 KHz
Bit depth                                : 16 bits
Compression mode                         : Lossy
Delay relative to video                  : 11ms
Stream size                              : 874 MiB (26%)
Title                                    : Original 5.1 1536 kbps
Language                                 : English
Default                                  : No
Forced                                   : No

Menu
00:00:00.000                             : en:(01)00:00:00:000
00:13:42.988                             : en:(02)00:13:42:988
00:25:13.803                             : en:(03)00:25:13:803
00:35:18.950                             : en:(04)00:35:18:950
00:44:56.610                             : en:(05)00:44:56:610
00:55:24.112                             : en:(06)00:55:24:112
01:04:05.508                             : en:(07)01:04:05:508
01:14:15.284                             : en:(08)01:14:15:284




Джерела та подяки:
українська доріжка - Vasua95 - запис з ТБ та синхронізація, ріп відео, оригінальний звук - джерело невідоме.


ЗАЛИШАЙТЕСЬ ЯКОМОГА ДОВШЕ НА РОЗДАЧІ!

СКАЧАВ САМ - ДАЙ СКАЧАТИ ІНШИМ


 Трекер:    Зареєстрований   

Завантажити / скачати мультфільм українською



відео для новачків



 Зареєстрований:   2013-10-02 09:06
 Розмір:   3.34 GB 
 Оцінка мультфільму:   5.1/10 (Голосів: 27)
   
Інші релізи
   Аеротачки / Sky Force 3D (2012) 720p Ukr/Eng ilu  1 / 0   2.85 GB   2013-09-15 14:01 
   Аеротачки / Sky Force 3D (2012) AngryBirdsUA  16 / 0   1.45 GB   2013-09-14 18:47 
Fedik 
Свій


З нами з: 04.06.08
Востаннє: 31.07.17
Повідомлень: 109

2013-10-02 21:40  
це не мульт, це якийсь капець Happy
semiora 
Новенький


З нами з: 11.05.11
Востаннє: 22.07.17
Повідомлень: 4

2013-11-05 09:35  
а буде реліз якості 1080p ?
Anonymous 







2013-11-05 10:18  
semiora написано:
а буде реліз якості 1080p ?

Від мене - ні. А вам не вистачає 720p?

Додано через 5 хвилин 1 секунду:

Для цього мульта 720р більш, ніж досить.

frantsvita 
Новенький


З нами з: 29.09.13
Востаннє: 19.12.14
Повідомлень: 2

2013-11-24 15:12  
Підкажіть він тут в 3D? І чи є на сайті 3D фільми чи мультики? А то купили тв з 3D а подивитись нічого неможу знайти((
Anonymous 







2013-11-24 15:23  
Ні "3D" тут просто в назві мультика, шукайте пошуком, щоб "3D" стояло після року випуску фільму - то і будуть релізи у 3Д.

Додано через 5 хвилин 27 секунд:

Найкраще - в пошуку виберіть розділ Фільми HD чи Мультфільми HD, у полі "Назва містить" наберіть "3d" - релізи, у яких "3d" стоїть після року випуску стрічки і є у форматі 3d.

Додано через 53 секунди:

у мене пошук видав 60 таких релізів в обох розділах

frantsvita 
Новенький


З нами з: 29.09.13
Востаннє: 19.12.14
Повідомлень: 2

2013-11-24 15:26  
Дякую!
Ваш часовий пояс: GMT + 2 Години

Нова тема   Відповісти