Людина-посмішка / The Smile Man (2013) 720p (ШафаМедіа)

Нові коментарі

Нова тема   Відповісти

Увійдіть, щоб проголосувати
Автор Повідомлення
NextDayMinor 
Свій


З нами з: 14.06.13
Востаннє: 01.10.17
Повідомлень: 85

2013-10-02 03:27  
Людина-посмішка / The Smile Man (2013)

Людина-посмішка / The Smile Man (2013) 720p (ШафаМедіа)


Жанр: короткий метр, комедія, драма
Країна: США, Росія

Режисер: Антон Ланшаков
Актори: Вільєм Дефо, Каміла Гуаті, Девід Ст. Джеймс, Джеремі Люк, Деміен Д. Смит

Сюжет:
Фільм про чоловіка, який потрапив у автомобільну катастрофу, наслідком якої стало пошкодження нерва у хребті, через що він змушений посміхатися до кінця життя.


Тривалість: 00:10:00
Якість:
Відео:
кодек:
розмір кадру: 1280 х 720
бітрейт: 6 734 кб/с

Аудіо:
мова: українська
переклад: багатоголосий закадровий
кодек: 2.0
бітрейт: 256 кб/с
Звіт Info:
Video
ID : 2
Format : AVC
Format/Info : Advanced Video Codec
Format profile : [email protected]
Format settings, CABAC : Yes
Format settings, ReFrames : 2 frames
Codec ID : avc1
Codec ID/Info : Advanced Video Coding
Duration : 9mn 59s
Bit rate mode : Variable
Bit rate : 6 473 Kbps
Maximum bit rate : 16.0 Mbps
Width : 1 280 pixels
Height : 720 pixels
Display aspect ratio : 16:9
Frame rate mode : Constant
Frame rate : 29.970 fps
Color space : YUV
Chroma subsampling : 4:2:0
Bit depth : 8 bits
Scan type : Progressive
Bits/(Pixel*Frame) : 0.234
Stream size : 463 MiB (96%)
Language : English
Encoded date : UTC 2013-10-02 00:08:55
Tagged date : UTC 2013-10-02 00:08:55

Audio
ID : 1
Format :
Format/Info : Advanced Audio Codec
Format profile : LC
Codec ID : 40
Duration : 9mn 59s
Bit rate mode : Constant
Bit rate : 256 Kbps
Channel count : 2 channels
Channel positions : Front: L R
Sampling rate : 48.0 KHz
Compression mode : Lossy
Delay relative to video : 33ms
Stream size : 18.3 MiB (4%)
Language : English
Encoded date : UTC 2013-10-02 00:08:55
Tagged date : UTC 2013-10-02 00:08:55
Скріншоти
Переклад і озвучення виконано: студія "ШафаМедіа"

Джерело: ШафаМедіа
Особиста оцінка: 8 - мені сподобалося


Авторський реліз (завантажувати можна без реєстрації)
 Трекер:    Зареєстрований   

Завантажити / скачати фільм українською



відео для новачків



 Зареєстрований:   2013-10-02 03:27
 Розмір:   481 MB 
 Оцінка фільму:   9/10 (Голосів: 20)
   
Ukraine21 
Новенький


З нами з: 20.12.11
Востаннє: 21.10.17
Повідомлень: 3

2013-10-03 01:38  
Лише англійську доріжку треба було прибрати чи зменшити звук
Konfucius 
Управління
Управління


З нами з: 30.09.07
Востаннє: 23.10.17
Повідомлень: 4984

2013-10-03 15:53  
Бракує звіту Info.
Alinea 
Відео Гуртом - субтитрування
Відео Гуртом - субтитрування


З нами з: 18.07.09
Востаннє: 22.10.17
Повідомлень: 131

2013-10-03 18:32  
Прекрасне озвучення, дякую) Замовлення приймаєте?
NextDayMinor 
Свій


З нами з: 14.06.13
Востаннє: 01.10.17
Повідомлень: 85

2013-10-03 22:11  
Alinea написано:
Прекрасне озвучення, дякую) Замовлення приймаєте?

Дякуємо.
Приймаємо. Правда у нас вже на черзі кілька проектів. Всі деталі - у ПП.

Андрей Соболев 
Частий відвідувач


З нами з: 05.09.13
Востаннє: 05.03.16
Повідомлень: 34

2013-10-04 00:53  
Ви замовлення тільки приймаете чи ще і робите?
legos25 
Відео Гуртом - запис з ТБ
Відео Гуртом - запис з ТБ


З нами з: 02.02.10
Востаннє: 23.10.17
Повідомлень: 1245

2013-10-04 10:07  
Чудова короткометражка, дякую. Озвучка відмінна.
waloha 
VIP


З нами з: 29.12.09
Востаннє: 22.10.17
Повідомлень: 324

2013-11-08 00:21  
Бляха, як мало, я подивився б цілий такий повнометражний фільм, думаю комедія вийшла б ще та !!!
stepan stepanov 
Частий відвідувач


З нами з: 17.12.10
Востаннє: 23.10.17
Повідомлень: 32

2013-11-14 02:04  
Wide grin Так я сміюся, Wide grin а так ні! Чудовий короткометражний фільм!
_BartMan_ 
Частий відвідувач


З нами з: 20.06.12
Востаннє: 23.10.17
Повідомлень: 26

2013-12-02 23:38  
Чудовий фільм.
Ваш часовий пояс: GMT + 2 Години

Нова тема   Відповісти