Скелелаз / Cliffhanger (1993) [Remastered] 1080p 2xUkr/Eng | Sub Eng

Нові коментарі

Нова тема   Відповісти
Автор Повідомлення
Anonymous 







2013-09-28 22:33  
Скелелаз / Cliffhanger (1993) [Remastered] 1080p 2xUkr/Eng | Sub Eng

Скелелаз / Cliffhanger (1993) [Remastered] 1080p 2xUkr/Eng | Sub Eng
Ще постер та обкладинка:



Скелелаз / Cliffhanger (1993) [Remastered] 1080p 2xUkr/Eng | Sub Eng


Жанр: бойовик, трилер, пригодницький
Країна: США, Італія, Франція



Кінокомпанія: Carolco Pictures, Canal+, Pioneer
Режисер: Ренні Гарлін / Renny Harlin
Актори: Сильвестер Сталлоне / Sylvester Stallone, Джон Літґоу / John Lithgow, Майкл Рукер / Michael Rooker, Пол Вінфілд / Paul Winfield та інші

Сюжет:
У горах після снігової лавини загубилися п'ятеро людей. На пошуки вирушає один з найкращих альпіністів – Гейб Вокер. Несподівано він усвідомлює, що його навмисне заманили в гори для виконання іншого завдання.
Тепер очевидно, що Гейб стане небажаним свідком, якого позбудуться без вагань. Але так просто віддавати своє життя він не збирається, і оголошує війну банді озброєних до зубів бойовиків на чолі з міжнародним терористом Еріком Кваленом...


Рейтинг MPAA: R - особам до 17 років обов'язкова присутність батьків або дорослого опікуна
Вікова категорія: 16+

Тривалість: 01:52:30
Якість: 1080p [4K Remastered - з нового скану плівки для 4K UHD Blu-ray 2018 року, якість набагато краща за попередні трансфери]
Порівняння якості старого US трансфера та цього нового Remastered скану (UK):
Відео:
кодек:
розмір кадру: 1920x816
бітрейт: 12,1 Мб/с

Аудіо # 1:
мова: українська
переклад: професійний дубльований | Cinema Sound Production
кодек: 2.0
бітрейт: 192 кб/с
примітка: з запису 25.05.2019, DVB-T2, 18 кГц

Аудіо # 2:
мова: українська
переклад: двоголосий закадровий
ролі озвучили: Олександр Завальський та Наталя Ярошенко
кодек: 2.0
бітрейт: 192 кб/с
примітка: по 1+1 та ТЕТ транслювався ідентичний переклад

Аудіо # 3:
мова: англійська
переклад: оригінал
кодек: 5.1
бітрейт: 448 кб/с

Субтитри:
мова: англійська
тип: програмні (м'які)
формат: *.srt

Збережено оригінальні розділи, як на Blu-ray.
Info
Код:

Complete name               : Cliffhanger (1993) [Remastered] [2xUkr,Eng sub.Eng] 1080p [Hurtom].
Format                      :
Format version              : Version 4
File size                   : 10.2 GiB
Duration                    : 1 h 52 min
Overall bit rate            : 13.0 Mb/s
Movie name                  : Скелелаз / Cliffhanger (1993) [Remastered] [2xUkr,Eng sub.Eng] 1080p [Hurtom]
Encoded date                : UTC 2019-05-30 18:40:09
Writing application         : v34.0.0 ('Sight and Seen') 64-bit
Writing library             : libebml v1.3.7 + v1.5.0
Cover                       : Yes
Attachments                 : cover.jpg

Video
ID                          : 1
Format                      : AVC
Format/Info                 : Advanced Video Codec
Format profile              : [email protected]
Format settings             : CABAC / 5 Ref Frames
Format settings, CABAC      : Yes
Format settings, Reference  : 5 frames
Codec ID                    : V_MPEG4/ISO/AVC
Duration                    : 1 h 52 min
Bit rate                    : 12.1 Mb/s
Width                       : 1 920 pixels
Height                      : 816 pixels
Display aspect ratio        : 2.35:1
Frame rate mode             : Constant
Frame rate                  : 24.000 FPS
Color space                 : YUV
Chroma subsampling          : 4:2:0
Bit depth                   : 8 bits
Scan type                   : Progressive
Bits/(Pixel*Frame)          : 0.323
Stream size                 : 9.53 GiB (94%)
Title                       : Скелелаз / Cliffhanger (1993) 1080p [Remastered] [HDReactor]
Writing library             : core 157 r2932 303c484
Encoding settings           : cabac=1 / ref=5 / deblock=1:-3:-3 / analyse=0x3:0x133 / me=umh / subme=11 / psy=1 / psy_rd=1.00:0.00 / mixed_ref=1 / me_range=32 / chroma_me=1 / trellis=2 / 8x8dct=1 / cqm=0 / deadzone=21,11 / fast_pskip=0 / chroma_qp_offset=-2 / threads=12 / lookahead_threads=1 / sliced_threads=0 / nr=0 / decimate=0 / interlaced=0 / bluray_compat=0 / constrained_intra=0 / bframes=10 / b_pyramid=2 / b_adapt=2 / b_bias=0 / direct=3 / weightb=1 / open_gop=0 / weightp=2 / keyint=240 / keyint_min=24 / scenecut=40 / intra_refresh=0 / rc=2pass / mbtree=0 / bitrate=12134 / ratetol=1.0 / qcomp=0.80 / qpmin=0 / qpmax=69 / qpstep=4 / cplxblur=20.0 / qblur=0.5 / ip_ratio=1.30 / pb_ratio=1.30 / aq=3:0.80
Language                    : English
Default                     : Yes
Forced                      : No

Audio #1
ID                          : 2
Format                      : AC-3
Format/Info                 : Audio Coding 3
Commercial name             : Dolby Digital
Codec ID                    : A_AC3
Duration                    : 1 h 52 min
Bit rate mode               : Constant
Bit rate                    : 192 kb/s
Channel(s)                  : 2 channels
Channel layout              : L R
Sampling rate               : 48.0 kHz
Frame rate                  : 31.250 FPS (1536 SPF)
Bit depth                   : 16 bits
Compression mode            : Lossy
Stream size                 : 155 MiB (1%)
Title                       : DUB [NLO TV] 2.0 192 Kbps
Language                    : Ukrainian
Service kind                : Complete Main
Default                     : Yes
Forced                      : No

Audio #2
ID                          : 3
Format                      : AC-3
Format/Info                 : Audio Coding 3
Commercial name             : Dolby Digital
Codec ID                    : A_AC3
Duration                    : 1 h 52 min
Bit rate mode               : Constant
Bit rate                    : 192 kb/s
Channel(s)                  : 2 channels
Channel layout              : L R
Sampling rate               : 48.0 kHz
Frame rate                  : 31.250 FPS (1536 SPF)
Bit depth                   : 16 bits
Compression mode            : Lossy
Stream size                 : 155 MiB (1%)
Title                       : DVO [2+2] 2.0 192 Kbps
Language                    : Ukrainian
Service kind                : Complete Main
Default                     : No
Forced                      : No

Audio #3
ID                          : 4
Format                      : AC-3
Format/Info                 : Audio Coding 3
Commercial name             : Dolby Digital
Codec ID                    : A_AC3
Duration                    : 1 h 52 min
Bit rate mode               : Constant
Bit rate                    : 448 kb/s
Channel(s)                  : 6 channels
Channel layout              : L R C LFE Ls Rs
Sampling rate               : 48.0 kHz
Frame rate                  : 31.250 FPS (1536 SPF)
Bit depth                   : 16 bits
Compression mode            : Lossy
Stream size                 : 361 MiB (3%)
Title                       : Original, 5.1 448 Kbps
Language                    : English
Service kind                : Complete Main
Default                     : No
Forced                      : No

Text
ID                          : 5
Format                      : UTF-8
Codec ID                    : S_TEXT/UTF8
Codec ID/Info               : UTF-8 Plain Text
Duration                    : 1 h 42 min
Bit rate                    : 49 b/s
Count of elements           : 1051
Stream size                 : 37.5 KiB (0%)
Language                    : English
Default                     : No
Forced                      : No

Menu
00:00:00.000                : en:01
00:11:50.500                : en:02
00:18:53.875                : en:03
00:30:00.875                : en:04
00:38:02.375                : en:05
00:47:21.291                : en:06
00:57:25.791                : en:07
01:07:35.250                : en:08
01:14:53.375                : en:09
01:25:19.666                : en:10
01:32:02.791                : en:11
01:44:34.208                : en:12
Скріншоти:
Джерела та подяки: &
Над українськими доріжками працювали: Bohdan237, igor911, karvai0, Romario_O, robotron005. Українські постери: Zubr139, Shkval.

Особиста оцінка: 8 - мені сподобалося

30.05.2019 реліз оновлено - замінено відеоряд на якісніший, з Remasterd видання, додано дубляж НЛО ТБ


Срібний реліз (на рейтинг впливає 50% завантаженого)
 Трекер:    Зареєстрований   

Завантажити / скачати фільм українською



відео для новачків



 Зареєстрований:   2019-05-30 21:10
 Розмір:   10.19 GB 
 Оцінка фільму:   7.9/10 (Голосів: 46)
 ЗАЛИШАЙТЕСЬ ЯКОМОГА ДОВШЕ НА РОЗДАЧІ! ЗАВАНТАЖИВ САМ - ДАЙ ЗАВАНТАЖИТИ ІНШИМ!
   
Інші релізи
   Скелелаз / Cliffhanger (1993) [Remastered] AVC 2xUkr/Eng | Sub Eng igor911  5 / 0   2.54 GB   2019-09-05 15:26 
   Скелелаз / Cliffhanger (1993) [Remastered] 720p 2xUkr/Eng | Sub Eng igor911  5 / 1   5.95 GB   2019-05-30 21:45 
   Скелелаз / Cliffhanger (1993) AVC 2xUkr/Eng | Sub Eng omm  2 / 0   2.17 GB   2019-05-30 20:50 
   Скелелаз / Cliffhanger (1993) Remux 1080p 2xUkr/Eng | Sub Eng/Ger kryk-v.ya.  3 / 0   27.23 GB   2019-05-28 09:13 
   Скелелаз / Cliffhanger (1993) Ukr/Eng robotron005  5 / 0   2.03 GB   2012-10-17 17:42 
dima77777 
Поважний учасник


З нами з: 28.11.12
Востаннє: 16.11.19
Повідомлень: 225

2013-09-28 22:44  
Дуже дякую за фільм!
Anonymous 







2013-09-28 22:46  
Для подяк є кнопка "Дякую", натискайте її.
Sauber 
Новенький


З нами з: 19.10.08
Востаннє: 20.11.19
Повідомлень: 3

2013-12-08 22:56  
Мій улюблений фільм зі Сталлоне
Anonymous 







2019-05-30 21:13  
Реліз оновлено - замінено відеоряд на якісніший, з Remastered видання, додано дубляж НЛО ТБ
hetzendorf 
Забанено
Забанено


З нами з: 23.07.15
Востаннє: 02.11.19
Повідомлень: 2572

2019-09-02 12:12  
На початку нібито непогано й захоплююче, але згодом під розлогу журавлину видовищності усе скотилося у натягнутість, шаблони і фальш. На 1 раз поглянути.
7/10

+380954897458 
VIP


З нами з: 02.06.17
Востаннє: 21.11.19
Повідомлень: 488

2019-09-02 20:02  
hetzendorf
І Ви подивилися цей фільм вперше? Не варто було цього робити, бойовик- не Ваш жанр, як Ви колись писали. Годі було сподіватися на одкровення. Такі фільми лише для дурників, як я, які переглядають із захопленням це кіно десь раз на рік, може трохи рідше, кожного разу з насолодою та цікавістю.

hetzendorf 
Забанено
Забанено


З нами з: 23.07.15
Востаннє: 02.11.19
Повідомлень: 2572

2019-09-02 20:59  
+380954897458
Проте Джим Керрі в «Ейс Вентурі цвай» чудово спародіював зав'язку, чи не так? ^__^

+380954897458 
VIP


З нами з: 02.06.17
Востаннє: 21.11.19
Повідомлень: 488

2019-09-03 11:03  
hetzendorf
Без сумніву! Найдраматичніший момент "Скелелаза" Керрі перетворив у найсмішніший момент зі свого фільму. Хоча єнотика шкода, такі очі у нього були безневинні...

madagaskar1 
VIP


З нами з: 08.05.14
Востаннє: 20.11.19
Повідомлень: 787

2019-09-05 08:49  
Anonymous
AVC можете зробити?

Ваш часовий пояс: GMT + 2 Години

Нова тема   Відповісти