Кунг-Фу Панда / Kung Fu Panda (2008) 720p-mini (50fps)

Нові коментарі

Нова тема   Відповісти
Автор Повідомлення
Drool 
VIP


З нами з: 17.04.10
Востаннє: 23.08.17
Повідомлень: 1376

2013-09-28 17:39  
Кунг-Фу Панда / Kung Fu Panda (2008) 720p-mini (50fps)

Кунг-Фу Панда / Kung Fu Panda (2008) 720p-mini (50fps)


Жанр: мультфільм, бойовик, комедія, пригоди, сімейний
Країна: США



Кінокомпанія: DreamWorks Animation, Pacific Data Images (PDI)
Режисер: Марк Осборн, Джон Стівенсон
Актори: Джек Блек, Дастін Хоффман, Анджеліна Джолі, Йен МакШейн, Джекі Чан, Сет Роґен, Люсі Лью, Девід Кросс, Рендолл Дак Кім, Джеймс Хонґ
Ролі озвучують: По - Юрій Ребрик, Тато - Микола Луценко, Майстер Шіфу - Богдан Ступка, Тигриця - Катерина Коновалова, Мавпа - Андрій Самінін, Журавель - Володимир Голоснік, Гадюка - Ірина Ткаленко, Богомол - Анатолій Пашнін, Майстер Угвей - Василь Мазур, Тай Лунь - Михайло Жонін, Дзень - Павло Скороходько

Сюжет:
Порятунок Долини Миру і всіх її мешканців від непереможного і безжального майстра Тай Лунга повинен лягти на плечі Воїна Дракона, Обраного серед кращих з кращих, яким стає... незграбний, ледачий і вічно голодний панда По. Його чекає довга і важка дорога до вершин майстерності Кунг-фу пліч-о-пліч з легендарними воїнами: Тигрицею, Мавпою, Богомолом, Гадюкою і Журавлем. По відкриє таємницю стародавнього Сувою і стане Воїном Дракона лише в тому випадку, якщо зможе повірити в себе.


Тривалість: 01:28:23
Якість: 720p-mini
Відео:
кодек:
розмір кадру: 1280x544
бітрейт: 2956 кб/с
частота кадрів: 50.0 кадрів/с

Аудіо:
мова: українська
переклад: професійний дубльований
кодек: 5.1
бітрейт: 448 кб/с

Джерело озвучення:
Info
General
Unique ID : 195194106780187207165389779997657277047 (0x92D9047C4B7858B57634208B9EBE2277)
Complete name : /mnt/router/Video/Kung.Fu.Panda.2008.Ukr.Dub.720p-mini.50fps.
Format :
File size : 2.14 GiB
Duration : 1h 28mn
Overall bit rate : 3 473 Kbps
Movie name : Кунг-Фу Панда / Kung Fu Panda (2008) 720p-mini 50fps | rip by DJonline
Encoded date : UTC 2013-09-28 13:44:47
Writing application : mkvmerge v4.8.0 ('I Got The...') built on Aug 22 2011 13:16:28
Writing library : libebml v1.2.0 + libmatroska v1.1.0

Video
ID : 1
Format : AVC
Format/Info : Advanced Video Codec
Format profile : [email protected]
Format settings, CABAC : Yes
Format settings, ReFrames : 8 frames
Codec ID : V_MPEG4/ISO/AVC
Duration : 1h 28mn
Bit rate : 2 956 Kbps
Width : 1 280 pixels
Height : 544 pixels
Display aspect ratio : 2.35:1
Frame rate : 50.000 fps
Color space : YUV
Chroma subsampling : 4:2:0
Bit depth : 8 bits
Scan type : Progressive
Bits/(Pixel*Frame) : 0.085
Stream size : 1.82 GiB (85%)
Title : Кунг-Фу Панда / Kung Fu Panda (2008) 720p-mini 50fps | rip by DJonline
Writing library : core 96 r1613 81e75e9
Encoding settings : cabac=1 / ref=8 / deblock=1:-1:-1 / analyse=0x3:0x133 / me=tesa / subme=10 / psy=1 / psy_rd=1.00:0.10 / mixed_ref=1 / me_range=32 / chroma_me=1 / trellis=2 / 8x8dct=1 / cqm=0 / deadzone=21,11 / fast_pskip=0 / chroma_qp_offset=-3 / threads=12 / sliced_threads=0 / nr=0 / decimate=1 / interlaced=0 / constrained_intra=0 / bframes=3 / b_pyramid=2 / b_adapt=2 / b_bias=0 / direct=3 / weightb=1 / weightp=2 / keyint=250 / keyint_min=25 / scenecut=40 / intra_refresh=0 / rc_lookahead=50 / rc=crf / mbtree=1 / crf=20.0 / qcomp=0.60 / qpmin=10 / qpmax=51 / qpstep=4 / ip_ratio=1.40 / aq=1:1.00

Audio
ID : 2
Format : AC-3
Format/Info : Audio Coding 3
Mode extension : CM (complete main)
Codec ID : A_AC3
Duration : 1h 28mn
Bit rate mode : Constant
Bit rate : 448 Kbps
Channel(s) : 6 channels
Channel positions : Front: L C R, Side: L R, LFE
Sampling rate : 48.0 KHz
Bit depth : 16 bits
Compression mode : Lossy
Stream size : 283 MiB (13%)
Title : Рідна мова
Language : Ukrainian
Скріншоти








Походження: відеоряд взято з ріпу DJonline
Особиста оцінка: 10 - без зайвих вагань рекомендую всім!
Трішки менший зразок:


 Трекер:    Зареєстрований   

Завантажити / скачати мультфільм українською



відео для новачків



 Зареєстрований:   2013-09-28 17:39
 Розмір:   2.14 GB 
 Оцінка мультфільму:   10/10 (Голосів: 30)
   
Alinea 
Відео Гуртом - субтитрування
Відео Гуртом - субтитрування


З нами з: 18.07.09
Востаннє: 22.08.17
Повідомлень: 130

2013-09-29 08:59  
"Не буває ціни в кльовості чи в гарненькості" - переклад просто супер, дивовижний, на цитати розібрати можна. Чудовий мультик, шкода, що Оскара не виграв
Drool 
VIP


З нами з: 17.04.10
Востаннє: 23.08.17
Повідомлень: 1376

2013-09-29 09:53  
А як щодо 50fps? Як картинка?
Stepan2009 
VIP


З нами з: 18.09.10
Востаннє: 22.08.17
Повідомлень: 327

2013-09-29 10:29  
Бл....., яка якість - як просто вражений. 50fps - це щось. "Дякую, дякую, дякую..." Wink (1) за реліз.

Додано через 10 хвилин 35 секунд:

"мої панденята" - обожнюю цей мультик. А в цій якості............ це наче нові враження. сиджу переглядаю і насолоджуюсь.

Drool 
VIP


З нами з: 17.04.10
Востаннє: 23.08.17
Повідомлень: 1376

2013-09-29 12:11  
Stepan2009 написано:
Бл....., яка якість - як просто вражений. 50fps - це щось. "Дякую, дякую, дякую..." за реліз.

Ну то пошукайте ще пошуком 60fps. Особливо Аватар!

Stepan2009 
VIP


З нами з: 18.09.10
Востаннє: 22.08.17
Повідомлень: 327

2013-09-29 18:25  
Drool написано:
Ну то пошукайте ще пошуком 60fps. Особливо Аватар!

Зараз пошукаю. Але за за Панду вельми вдячний. Жаль, що мало у такій якості є фільмів на українській.

iJuggernaut 
Новенький


З нами з: 14.12.14
Востаннє: 13.05.17
Повідомлень: 15

2015-07-30 19:39  
як що до другої частини в такій же якості?
Drool 
VIP


З нами з: 17.04.10
Востаннє: 23.08.17
Повідомлень: 1376

2015-08-03 14:14  
iJuggernaut написано:
як що до другої частини в такій же якості?

Є дилогія в якості 1080p з 60fps. Там майже 17 гіг. Якщо у вас є технічна можливість прокачати та роздати такий об'єм - можете стукнути в приват, зробимо.

Ваш часовий пояс: GMT + 2 Години

Нова тема   Відповісти